MEGA SALE -50% FORZA HORIZON 4 ULTIMATE+ВСЕ DLC+ОНЛАЙН всего за 599р. 299 руб. (супер цена). Внимание количество ограничено!!!

iTunes

1+1

iTunes

мы

iTunes

1

iTunes

Чернобыль

iTunes

Ральф против интернета

Лицензия

ПШазам

Лицензия

Игра престолов

Лицензия

30
pack

ВАЖНО

!!Акция!!

Alien_RageХит недели

RePack

Resident Evil 21

ИГРА 18+

pack

RePack

Metro:Exodus

!!Акция!!

Alien_Rage

RePack

fifa19

RePack

Assassins Creed: Odyssey

RePack

NEED FOR SPEED™ PAYBACK

3 сезон

9 сезон

Бесстыжие 9 сезон

Все сериалы

все сериалы на PB.wtf

RePack

FAR CRY 5
Ребята, катастрофически не хватает 7730р. для оплаты серверов за АВГУСТ (всвязи с блокировками трафик упал в 3 раза), 1-2р., выручайте.
  

Поворот судьбы / A Simple Twist of Fate (Гиллис МакКиннон) [1994 г., драма, комедия, BDRip] MVO pb.wtf

Поворот судьбы через торрент pb.wtf

Размер: 1.45 GB | Добавлен: 2 года 11 мес. назад | Торрент скачан:8 раз
Скачать  

17-09-2016 10:18 Поворот судьбы Скачать торрент  

Поворот судьбы / A Simple Twist of Fate
Год выпуска: 1994
Страна: США
Жанр: драма, комедия
Продолжительность: 01:46:22
Перевод: Профессиональный (многоголосый) [ОРТ]

Режиссер: Гиллис МакКиннон
Продюссер: Рик Кидни, Стив Мартин, Карен Сноу
Сценарий: Стив Мартин, Джордж Элиот

Бюджет: $3 430 583
Премьера в мире: 2 сентября 1994



В ролях: Гэбриел Бирн, Стив Мартин, Лора Линни, Кэтрин О`Хара, Алана Остин, Стивен Болдуин, Байрон Дженнингс, Майкл Дес Баррес, Тим Уэйр, Дэвид Двайер, Том Ивен, Эд Грэйди, Амелия Кэмпбелл, Эрик Брукс, Дэнни Нельсон, Адам Кросби, Кэролин МакКормик, Терри Лафлин, Сюзанн Стюарт, Леон Ламар

Описание: Когда-то Майкл был веселым, преуспевающим и довольным жизнью человеком. Все изменилось в один миг — когда жена сообщила, что ребенок, которого она ждет — не от него. Майкл с горя бросил все и зажил отшельником, у которого была только одна страсть — коллекционирование золотых монет. Прошло несколько лет одиночества. И в один момент Майкл лишается всего: его обокрали. Но в его судьбе происходит крутой поворот: в его жизнь вошла маленькая девочка, заменив ему «все золото мира». И опять поворот судьбы: объявляется настоящий отец девочки, который хочет отнять ее у Майкла.

Качество: BDRip
Формат: AVI
Видео кодек: XviD
Аудио кодек: AC3
Видео: XviD, 1554 Кбит/с, 704x400, 23.976 кадр/с
Аудио#1: AC3, 2 ch, 192 Кбит/с, 48 kHz | Русский
Аудио#2: АС3, 2 ch, 192 Кбит/с, 48 kHz | Английский
Релиз от: Koenig
Общее
Полное имя : A.Simple.Twist.of.Fate.1994.BDRip.avi
Формат : AVI
Формат/Информация : Audio Video Interleave
Размер файла : 1,45 Гбайт
Продолжительность : 1 ч. 46 м.
Общий поток : 1952 Кбит/сек
Программа кодирования : VirtualDubMod 1.5.10.2 (build 2540/release)
Библиотека кодирования : VirtualDubMod build 2540/release

Видео
Идентификатор : 0
Формат : MPEG-4 Visual
Профиль формата : Advanced Simple@L5
Параметр BVOP формата : 1
Параметр QPel формата : Нет
Параметр GMC формата : Без точки перехода
Параметр матрицы формата : Выборочная
Идентификатор кодека : XVID
Идентификатор кодека/Подсказка : XviD
Продолжительность : 1 ч. 46 м.
Битрейт : 1554 Кбит/сек
Ширина : 704 пикселя
Высота : 400 пикселей
Соотношение сторон : 16:9
Частота кадров : 23,976 (23976/1000) кадра/сек
Цветовое пространство : YUV
Субдискретизация насыщенности : 4:2:0
Битовая глубина : 8 бит
Тип развёртки : Прогрессивная
Метод сжатия : С потерями
Бит/(Пиксели*Кадры) : 0.230
Размер потока : 1,15 Гбайт (80%)
Библиотека кодирования : XviD 73

Аудио #1
Идентификатор : 1
Формат : AC-3
Формат/Информация : Audio Coding 3
Расширение режима : CM (complete main)
Параметр Endianness формата : Big
Идентификатор кодека : 2000
Продолжительность : 1 ч. 46 м.
Вид битрейта : Постоянный
Битрейт : 192 Кбит/сек
Каналы : 2 канала
Расположение каналов : Front: L R
Частота : 48,0 КГц
Частота кадров : 31,250 кадров/сек (1536 spf)
Метод сжатия : С потерями
Размер потока : 146 Мбайт (10%)
Выравнивание : Разделение по промежуткам
Продолжительность промежутка : 42 мс. (1,00 видеокадр)
Время предзагрузки промежутка : 500 мс.

Аудио #2
Идентификатор : 2
Формат : AC-3
Формат/Информация : Audio Coding 3
Расширение режима : CM (complete main)
Параметр Endianness формата : Big
Идентификатор кодека : 2000
Продолжительность : 1 ч. 46 м.
Вид битрейта : Постоянный
Битрейт : 192 Кбит/сек
Каналы : 2 канала
Расположение каналов : Front: L R
Частота : 48,0 КГц
Частота кадров : 31,250 кадров/сек (1536 spf)
Метод сжатия : С потерями
Размер потока : 146 Мбайт (10%)
Выравнивание : Разделение по промежуткам
Продолжительность промежутка : 42 мс. (1,00 видеокадр)
Время предзагрузки промежутка : 500 мс.

Поворот судьбы скачать торрент

pb.wtf



Скачать Поворот судьбы через торрент http://pic1.kartinco.top/images/10/ma186.jpg Скачать фильм Поворот судьбы через торрент бесплантно в хорошем качестве Описание: Когда-то Майкл был веселым, преуспевающим и довольным жизнью человеком. Все изменилось в один миг — когда жена сообщила, что ... 10 10 1
Info! Золотая раздача, скачанное не засчитывается.
Торрент: Зарегистрирован [2016-09-17 10:18] · скачан: 8 раз
Статус: √ проверено
Размер: 1.45 GB
Как cкачать? Как скачать Поворот судьбы через торрент | qTorrent


>> Регистрируемся здесь <<






Отзывы и комментарии о схеме читаем и пишем здесь: ---> Отзывы и комментарии о схеме

Новые благодарочки в телеграм довольных пользователей:
скриншот   скриншот   скриншот   скриншот   скриншот
    Дорогой пользователь! Огромная просьба, поблагодарите релизера, оцените раздачу и оставьте свои комментарий, если Вы скачали Поворот судьбы через торрент бесплатно! Внесите свою лепту в развитие PiratBit!
    Комментировать посты могут только пользователи прошедшие не сложную регистрацию
    Показать сообщения:    

    Поворот судьбы через торрент
    Скачать бесплатно Поворот судьбы
    Поворот судьбы скачать торрент
    Поворот судьбы смотреть онлайн
    Cкачать фильм Поворот судьбы бесплатно
    Поворот судьбы скачать торрент в хорошем качестве
    Поворот судьбы смотреть онлайн бесплатно в хорошем качестве


    Вы не можете начинать темы
    Вы не можете отвечать на сообщения
    Вы не можете редактировать свои сообщения
    Вы не можете удалять свои сообщения
    Вы не можете голосовать в опросах
    Вы не можете прикреплять файлы к сообщениям
    Вы можете скачивать файлы