Ссылка на приватное зеркало нашего сайта всего за 1$. Внимание количество ограничено!!!

2 сезон

iTunes

1 сезон

1

2 сезон

2 сезон

iTunes

1 сезон

RePack

30

Ultimate

ВАЖНО

ИГРА 18+

pack

RePack

MK11
pack

Забери бонус

RePack

jed

!!Акция!!

Alien_Rage

RePack

fifa19

RePack

Assassins Creed: Odyssey

RePack

NEED FOR SPEED™ PAYBACK

4 сезон

9 сезон

Бесстыжие 9 сезон

Все сериалы

все сериалы на PB.wtf

RePack

FAR CRY 5
  

Ярость мертвецов / Anger of the Dead (Франческо Пиконе,Event Film Distribution, Extreme Video Snc) [2015 г., Ужасы, драма, BDRip 1080р, Любительский (одноголосый) [МЕГАПЫХАРЬ]] pb.wtf

Ярость мертвецов через торрент pb.wtf

Размер: 6.11 GB | Добавлен: 4 года 2 мес. назад | Торрент скачан:177 раз
Скачать  

17-09-2016 18:07 Ярость мертвецов Скачать торрент  

Ярость мертвецов / Anger of the Dead

Год выпуска: 2015
Страна: Канада Италия
Жанр: Ужасы, драма
Продолжительность: 01:24:00
Перевод: Любительский (одноголосый) [МЕГАПЫХАРЬ]
Режиссер: Франческо Пиконе

Выпущено: Event Film Distribution, Extreme Video Snc

В ролях: Айк Стилстра, Майкл Сигал, Мариус Бизо, Дезире Джорджетти,
Клаудио Камилли, Дэвид Уайт, Элли МакКлелланд, Роберта Спарта


Описание: Беременная девушка вместе с двумя спутниками пытается выжить,
путешествуя по дорогам на автомобиле. Тем временем, на встречу им
бежит пленница, ставшая их судьбой, за которой гонится беспощадный
Охотник со своими отмороженными товарищами.

(Реклама отсутствует)


Качество: BDRip 1080р
Формат: MKV
Видео кодек: AVC
Аудио кодек: AC3

Видео: (AVC),1920x800,(2,40:1) v 23.976, fps 9571 kb/s
Аудио#1: Russian: AC3, 192 kb/s (2 ch) 48.0 КГц
Аудио#2: English: AC3, 640 kb/s (6 ch) 48.0 КГц



Общее
Уникальный идентификатор : 229716249544764890005640313814022045333 (0xACD1BD88F52EC9568CD3F6296EC33E95)
Полное имя : D:\релиз кино\Age.of.the.Dead.2015.L1.BDRip.mkv
Формат : Matroska
Версия формата : Version 4 / Version 2
Размер файла : 6,11 Гбайт
Продолжительность : 1 ч. 23 м.
Общий поток : 10,4 Мбит/сек
Дата кодирования : UTC 2015-08-04 21:57:16
Программа кодирования : mkvmerge v6.1.0 ('Old Devil') built on Mar 4 2013 09:10:42
Библиотека кодирования : libebml v1.3.0 + libmatroska v1.4.0

Видео
Идентификатор : 1
Формат : AVC
Формат/Информация : Advanced Video Codec
Профиль формата : High@L4
Параметр CABAC формата : Да
Параметр ReFrames формата : 4 кадра
Идентификатор кодека : V_MPEG4/ISO/AVC
Продолжительность : 1 ч. 23 м.
Битрейт : 9571 Кбит/сек
Ширина : 1920 пикселей
Высота : 800 пикселей
Соотношение сторон : 2,40:1
Режим частоты кадров : Постоянный
Частота кадров : 23,976 (24000/1001) кадра/сек
Цветовое пространство : YUV
Субдискретизация насыщенности : 4:2:0
Битовая глубина : 8 бит
Тип развёртки : Прогрессивная
Бит/(Пиксели*Кадры) : 0.260
Размер потока : 5,50 Гбайт (90%)
Библиотека кодирования : x264 core 146 r2538 121396c
Настройки программы : cabac=1 / ref=3 / deblock=1:0:0 / analyse=0x3:0x113 / me=hex / subme=7 / psy=1 / psy_rd=1.00:0.00 / mixed_ref=1 / me_range=16 / chroma_me=1 / trellis=1 / 8x8dct=1 / cqm=0 / deadzone=21,11 / fast_pskip=1 / chroma_qp_offset=-2 / threads=12 / lookahead_threads=2 / sliced_threads=0 / nr=0 / decimate=1 / interlaced=0 / bluray_compat=0 / constrained_intra=0 / bframes=3 / b_pyramid=2 / b_adapt=1 / b_bias=0 / direct=1 / weightb=1 / open_gop=0 / weightp=2 / keyint=240 / keyint_min=23 / scenecut=40 / intra_refresh=0 / rc_lookahead=40 / rc=2pass / mbtree=1 / bitrate=9571 / ratetol=1.0 / qcomp=0.60 / qpmin=0 / qpmax=69 / qpstep=4 / cplxblur=20.0 / qblur=0.5 / ip_ratio=1.40 / aq=1:1.00
Язык : English
Default : Да
Forced : Нет

Аудио #1
Идентификатор : 2
Формат : AC-3
Формат/Информация : Audio Coding 3
Расширение режима : CM (complete main)
Параметр Endianness формата : Big
Идентификатор кодека : A_AC3
Продолжительность : 1 ч. 23 м.
Вид битрейта : Постоянный
Битрейт : 192 Кбит/сек
Каналы : 2 канала
Расположение каналов : Front: L R
Частота : 48,0 КГц
Частота кадров : 31,250 кадров/сек (1536 spf)
Метод сжатия : С потерями
Размер потока : 115 Мбайт (2%)
Язык : Russian
Default : Да
Forced : Нет

Аудио #2
Идентификатор : 3
Формат : AC-3
Формат/Информация : Audio Coding 3
Расширение режима : CM (complete main)
Параметр Endianness формата : Big
Идентификатор кодека : A_AC3
Продолжительность : 1 ч. 23 м.
Вид битрейта : Постоянный
Битрейт : 640 Кбит/сек
Каналы : 6 каналов
Расположение каналов : Front: L C R, Side: L R, LFE
Частота : 48,0 КГц
Частота кадров : 31,250 кадров/сек (1536 spf)
скриншот  скриншот  скриншот  скриншот   скриншот  скриншот  скриншот  скриншот  скриншот  скриншот  
pb.wtf



Скачать Ярость мертвецов через торрент http://pic1.kartinco.top/images/10/82zhv.jpg Скачать фильм Ярость мертвецов через торрент бесплантно в хорошем качестве Описание: Беременная девушка вместе с двумя спутниками пытается выжить, путешествуя по дорогам на автомобиле. Тем временем, на встречу им ... 8.2 10 10
Info! Золотая раздача, скачанное не засчитывается.
Торрент: Зарегистрирован [2016-09-17 18:07] · скачан: 177 раз
Статус: T временная
Размер: 6.11 GB
Как cкачать? Как скачать Ярость мертвецов через торрент | qTorrent



Последний раз редактировалось: DJASFUL (2016-09-18 00:12), всего редактировалось 1 раз

28-11-2019 20:33  

Отключить всю рекламу на сайте

17-09-2016 18:17 Ярость мертвецов Скачать торрент  

Кто нибудь смотрел данный шедевр?pb.wtf



17-09-2016 18:51 Ярость мертвецов Скачать торрент  

Всем от Души за монеты ! pb.wtf



17-09-2016 21:26 Ярость мертвецов Скачать торрент  

sotiv писал(а):

Кто нибудь смотрел данный шедевр?

такой же вопрос?pb.wtf



17-09-2016 22:28 Ярость мертвецов Скачать торрент  

плохо даже для треша. попытка выехать на хайпе с "Ходячими". неудачная попытка.pb.wtf



18-09-2016 13:24 Ярость мертвецов Скачать торрент  

ivanenko71, спасибо я тебе верю!pb.wtf



18-09-2016 14:39 Ярость мертвецов Скачать торрент  

Фильм конечно не (айс))) но я считаю у каждого человека должно быть свое мнение,а не отталкиваться от мнения другого. P.S. На будущие )) человек без своего мнения...(Труп) .
Всем удачи !!!pb.wtf



    Дорогой пользователь! Огромная просьба, поблагодарите релизера, оцените раздачу и оставьте свои комментарий, если Вы скачали Ярость мертвецов через торрент бесплатно! Внесите свою лепту в развитие PiratBit!
    Комментировать посты могут только пользователи прошедшие не сложную регистрацию
    Показать сообщения:    

    Ярость мертвецов через торрент
    Скачать бесплатно Ярость мертвецов
    Ярость мертвецов скачать торрент
    Ярость мертвецов смотреть онлайн
    Cкачать фильм Ярость мертвецов бесплатно
    Ярость мертвецов скачать торрент в хорошем качестве
    Ярость мертвецов смотреть онлайн бесплатно в хорошем качестве


    Вы не можете начинать темы
    Вы не можете отвечать на сообщения
    Вы не можете редактировать свои сообщения
    Вы не можете удалять свои сообщения
    Вы не можете голосовать в опросах
    Вы не можете прикреплять файлы к сообщениям
    Вы можете скачивать файлы