Ссылка на приватное зеркало нашего сайта всего за 1$. Внимание количество ограничено!!!

2 сезон

iTunes

1 сезон

1

iTunes

iTunes

iTunes

1 сезон

RePack

30

ИГРА 18+

pack

ВАЖНО

!!Акция!!

Alien_RageХит недели

RePack

MK11
pack

Забери бонус

RePack

jed

!!Акция!!

Alien_Rage

RePack

fifa19

RePack

Assassins Creed: Odyssey

RePack

NEED FOR SPEED™ PAYBACK

4 сезон

9 сезон

Бесстыжие 9 сезон

Все сериалы

все сериалы на PB.wtf

RePack

FAR CRY 5
  

Киев днем и ночью (1 сезон: 1-48 серии из 48)\Київ вдень і вночі (Ксения Бугримова) [2016 г., Сериалити, WEB-DL (720p) Русский] pb.wtf

Киев днем и ночью через торрент pb.wtf

Размер: 29.19 GB | Добавлен: 4 года 1 мес. назад | Торрент скачан:18 раз
Скачать  

17-09-2016 21:50 Киев днем и ночью Скачать торрент  

Киев днем и ночью (1 сезон)\Київ вдень і вночі
Год выпуска: 2016
Страна: Украина
Жанр: Сериалити
Продолжительность: 48 х ~ 00:45:00
Перевод:Русский
Субтитры: Нет

Режиссер: Ксения Бугримова

Описание: Сериалити «Киев днем и ночью» – уникальный для Нового канала и украинского телевидения в целом жанр. Это увлекательная история, которая происходит с реальными людьми – ребятами, которые приехали искать свое счастье в большом городе и живут в одной квартире.

Качество: WEB-DL (720p)
Формат: MKV
Видео кодек: AVC
Аудио кодек: AAC
Видео: MPEG-4 AVC, (1280x720),2100 Кбит/с, 25.000 кадра/сек
Аудио#1: AAC, 2 ch,192 kbps (Rus) 48.0 KHz Русский
скриншот   скриншот   скриншот  

Тип потока: Видео
Длительность: 00:44:55
Кодек: AVC
Кодек/описание: Advanced Video Codec
Кодек/профиль: High@L3.1
Кодек/ID: avc1
Кодек/CABAC: Yes
Кодек/ReFrames: 1 frame
Размеры изображения: 1280 x 720 (16:9)
Частота кадров: 25.000 fps
Частота кадров/тип: Constant
Размер потока: 654 MiB (91%)
Битрейт: 2 036 Kbps
Битрейт/макс: 8 492 Kbps
Цветовое пространство: YUV
Тип развёртки: Progressive
Колориметрия: 4:2:0
Глубина: 8 bits
:
Тип потока: Звук #1
Язык: RUS
Название: IsoMedia File Produced by Google, 5-11-2011
Длительность: 00:44:55.580
Кодек: AAC
Кодек/описание: Advanced Audio Codec
Кодек/профиль: LC
Кодек/ID: 40
Частота дискретизации: 44.1 KHz
Каналов: 2 channels
Битрейт: 192 Kbps
Битрейт/тип: Variable
Размер потока: 61.7 MiB (9%)
Метод сжатия: Lossy

pb.wtf



Скачать Киев днем и ночью через торрент http://pic1.kartinco.top/images/10/k2u8k.jpg Скачать фильм Киев днем и ночью через торрент бесплантно в хорошем качестве Описание: Сериалити «Киев днем и ночью» – уникальный для Нового канала и украинского телевидения в целом жанр. Это увлекательная история, ... 3.6 10 7
Торрент: Зарегистрирован [2016-09-17 21:50] · скачан: 18 раз
Статус: √ проверено
Размер: 29.19 GB
Как cкачать? Как скачать Киев днем и ночью через торрент | qTorrent

% Раздел Тема Автор DL S | L
Наши сериалы [ 10.89 GB ] Киев днем и ночью / Київ вдень і вночі [2016 Сериалити SATRip]Русский Бумер Скачать
1 | 0

28-11-2019 20:33  

Отключить всю рекламу на сайте

18-09-2016 07:47 Киев днем и ночью Скачать торрент  

5000 тысяч очков золотоpb.wtf



18-09-2016 08:18 Киев днем и ночью Скачать торрент  

Бумер писал(а):

5000 тысяч очков золото

золото для этого г???pb.wtf



18-09-2016 12:43 Киев днем и ночью Скачать торрент  

такое ощущение что дом 2 начал смотреть только в Киеве.Удалил!pb.wtf



19-09-2016 18:04 Киев днем и ночью Скачать торрент  

такого говна я еще не видел...pb.wtf



    Дорогой пользователь! Огромная просьба, поблагодарите релизера, оцените раздачу и оставьте свои комментарий, если Вы скачали Киев днем и ночью через торрент бесплатно! Внесите свою лепту в развитие PiratBit!
    Комментировать посты могут только пользователи прошедшие не сложную регистрацию
    Показать сообщения:    

    Киев днем и ночью через торрент
    Скачать бесплатно Киев днем и ночью
    Киев днем и ночью скачать торрент
    Киев днем и ночью смотреть онлайн
    Cкачать фильм Киев днем и ночью бесплатно
    Киев днем и ночью скачать торрент в хорошем качестве
    Киев днем и ночью смотреть онлайн бесплатно в хорошем качестве


    Вы не можете начинать темы
    Вы не можете отвечать на сообщения
    Вы не можете редактировать свои сообщения
    Вы не можете удалять свои сообщения
    Вы не можете голосовать в опросах
    Вы не можете прикреплять файлы к сообщениям
    Вы можете скачивать файлы