Ссылка на приватное зеркало нашего сайта всего за 1$. Внимание количество ограничено!!!

2 сезон

iTunes

1 сезон

1

2 сезон

2 сезон

iTunes

1 сезон

RePack

30

Новинка

ВАЖНО

ИГРА 18+

pack

RePack

MK11
pack

Забери бонус

RePack

jed

!!Акция!!

Alien_Rage

RePack

fifa19

RePack

Assassins Creed: Odyssey

RePack

NEED FOR SPEED™ PAYBACK

4 сезон

9 сезон

Бесстыжие 9 сезон

Все сериалы

все сериалы на PB.wtf

RePack

FAR CRY 5
  

Звездные врата: Вселенная / SGU Stargate Universe / Сезон 1 / Серии 1-20 из 20 (Энди Микита, Уильям Варинг, Питер ДеЛуис) [2009 г., Боевик, драма, фантастика, приключения, WEB-DLRip, Профессиональный многоголосый LostFilm] pb.wtf

Звездные врата: Вселенная через торрент pb.wtf

Размер: 7.81 GB | Добавлен: 4 года 2 мес. назад | Торрент скачан:69 раз
Скачать  

18-09-2016 12:01 Звездные врата: Вселенная Скачать торрент  

Звездные врата: Вселенная / Stargate Universe / Сезон 1 / Серии 1-20 из 20 «The Only Mission Is Survival»

Год выпуска: 2009
Страна: Канада, США
Жанр: Боевик, драма, фантастика, приключения
Продолжительность: 00:41:50 мин. х 20 серий
Перевод: Профессиональный многоголосый LostFilm

Режиссер: Энди Микита, Уильям Варинг, Питер ДеЛуис
Премьера в мире: 2 октября 2009
В ролях: Robert Carlyle (Николас Раш), Louis Ferreira (Эверетт Янг), Brian J. Smith (Мэтью Скотт), Elyse Levesque (Хлоя Армстронг), David Blue (Илай Уоллес), Alaina Huffman (Тамара Йохансен), Jamil Walker Smith (Рональд Грир), Ming-Na (Камилла Рэй), Peter Kelamis (Адам Броуди), Patrick Gilmore (Дэйл Волкер), Jennifer Spence (Лиза Парк), Julia Benson (Ванесса Джеймс), Lou Diamond Phillips (Дэвид Тэлфорд)...
Описание: Набрав 9-шевронный адрес звёздных врат, команда базы "Икар" попадает на корабль древних, называемый "Судьба", построенный миллионы лет назад для распространения звёздных врат по вселенной. Група людей, возглавляемая доктором Николасом Рашем и полковником Эверетом Янгом, оказывается в ловушке на корабле. Они не могут изменить запрограммированный древними курс корабля, и не могут набрать адрес врат домой. Неуправляемый корабль несёт их в бесконечные просторы вселенной, где их ждут встречи с новым расами, новыми технологиями и новыми врагами.



Качество: WEB-DLRip
Формат: AVI
Видео кодек: XviD
Аудио кодек: MPEG Audio
Видео: 624x352, 1080 kbps, 23,976 fps, 0,205 bpp
Аудио#1: Русский, 128 Кбит/сек, 48,0 КГц, 2 канала, MPEG Audio
скриншот   скриншот   скриншот   скриншот   скриншот  скриншот  





Общее
Полное имя : E:\Stargate\Stargate Universe 1\Stargate.Universe.s01e03.rus.LostFilm.TV.avi
Формат : AVI
Формат/Информация : Audio Video Interleave
Размер файла : 383 Мбайт
Продолжительность : 43 м. 49 с.
Общий поток : 1221 Кбит/сек
Программа кодирования : Nandub v1.0rc2
Библиотека кодирования : Nandub build 1853/release

Видео
Идентификатор : 0
Формат : MPEG-4 Visual
Профиль формата : Advanced Simple@L5
Параметр BVOP формата : 1
Параметр QPel формата : Нет
Параметр GMC формата : Без точки перехода
Параметр матрицы формата : Выборочная
Идентификатор кодека : XVID
Идентификатор кодека/Подсказка : XviD
Продолжительность : 43 м. 49 с.
Битрейт : 1080 Кбит/сек
Ширина : 624 пикселя
Высота : 352 пикселя
Соотношение сторон : 16:9
Частота кадров : 23,976 (23976/1000) кадра/сек
Цветовое пространство : YUV
Субдискретизация насыщенности : 4:2:0
Битовая глубина : 8 бит
Тип развёртки : Прогрессивная
Метод сжатия : С потерями
Бит/(Пиксели*Кадры) : 0.205
Размер потока : 339 Мбайт (88%)
Библиотека кодирования : XviD 1.2.1 (UTC 2008-12-04)

Аудио
Идентификатор : 1
Формат : MPEG Audio
Версия формата : Version 1
Профиль формата : Layer 3
Режим : Joint stereo
Расширение режима : MS Stereo
Идентификатор кодека : 55
Идентификатор кодека/Подсказка : MP3
Продолжительность : 43 м. 49 с.
Вид битрейта : Постоянный
Битрейт : 128 Кбит/сек
Каналы : 2 канала
Частота : 48,0 КГц
Метод сжатия : С потерями
Размер потока : 40,1 Мбайт (10%)
Выравнивание : Соединение по промежуткам
Продолжительность промежутка : 24 мс. (0,58 видеокадр)
Время предзагрузки промежутка : 480 мс.


скриншот  pb.wtf



Скачать Звездные врата: Вселенная через торрент http://pic1.kartinco.top/images/10/q95d3.jpg Скачать фильм Звездные врата: Вселенная через торрент бесплантно в хорошем качестве Описание: Набрав 9-шевронный адрес звёздных врат, команда базы "Икар" попадает на корабль древних, называемый "Судьба", построенный ... 9.5 10 10
Info! Золотая раздача, скачанное не засчитывается.
Торрент: Зарегистрирован [2016-09-18 12:01] · скачан: 69 раз
Статус: √ проверено
Размер: 7.81 GB
Как cкачать? Как скачать Звездные врата: Вселенная через торрент | qTorrent

% Раздел Тема Автор DL S | L
Зарубежные сериалы [ 8.54 GB ] Звездные врата: Вселенная / SGU Stargate Universe / Сезон 2 / Серии 1-20 из 20 [2010 WEB-DLRip многоголосый LostFilm] mailman13 Скачать
1 | 0
Зарубежные сериалы [ 11.12 GB ] Звездные врата: Вселенная / SGU Stargate Universe [2009 ... SATRip Пиратка] tolstij34 Скачать
1 | 0


Последний раз редактировалось: mailman13 (2016-09-18 17:52), всего редактировалось 2 раз(а)

28-11-2019 20:33  

Отключить всю рекламу на сайте

18-09-2016 14:05 Звездные врата: Вселенная Скачать торрент  

mailman13 писал(а):

Качество: WEB-DL 720p

mailman13 писал(а):

Видео: 624x352 (1280х738)

Это что вообще?!pb.wtf



18-09-2016 17:45 Звездные врата: Вселенная Скачать торрент  

Ворон писал(а):

mailman13 писал(а):

Качество: WEB-DL 720p

mailman13 писал(а):

Видео: 624x352 (1280х738)

Это что вообще?!

Поправил.pb.wtf



20-09-2016 01:42 Звездные врата: Вселенная Скачать торрент  

класный сериалpb.wtf



    Дорогой пользователь! Огромная просьба, поблагодарите релизера, оцените раздачу и оставьте свои комментарий, если Вы скачали Звездные врата: Вселенная через торрент бесплатно! Внесите свою лепту в развитие PiratBit!
    Комментировать посты могут только пользователи прошедшие не сложную регистрацию
    Показать сообщения:    

    Звездные врата: Вселенная через торрент
    Скачать бесплатно Звездные врата: Вселенная
    Звездные врата: Вселенная скачать торрент
    Звездные врата: Вселенная смотреть онлайн
    Cкачать фильм Звездные врата: Вселенная бесплатно
    Звездные врата: Вселенная скачать торрент в хорошем качестве
    Звездные врата: Вселенная смотреть онлайн бесплатно в хорошем качестве


    Вы не можете начинать темы
    Вы не можете отвечать на сообщения
    Вы не можете редактировать свои сообщения
    Вы не можете удалять свои сообщения
    Вы не можете голосовать в опросах
    Вы не можете прикреплять файлы к сообщениям
    Вы можете скачивать файлы