Ссылка на приватное зеркало нашего сайта всего за 1$. Внимание количество ограничено!!!

2 сезон

iTunes

1 сезон

1

2 сезон

2 сезон

iTunes

1 сезон

RePack

30

Новинка

ВАЖНО

ИГРА 18+

pack

RePack

MK11
pack

Забери бонус

RePack

jed

!!Акция!!

Alien_Rage

RePack

fifa19

RePack

Assassins Creed: Odyssey

RePack

NEED FOR SPEED™ PAYBACK

4 сезон

9 сезон

Бесстыжие 9 сезон

Все сериалы

все сериалы на PB.wtf

RePack

FAR CRY 5
  

Звездные врата: Вселенная / SGU Stargate Universe / Сезон 2 / Серии 1-20 из 20 (Энди Микита, Уильям Варинг, Питер ДеЛуис) [2010 г., Боевик, драма, фантастика, приключения, WEB-DLRip, Профессиональный многоголосый LostFilm] pb.wtf

Звездные врата: Вселенная через торрент pb.wtf

Размер: 8.54 GB | Добавлен: 4 года 2 мес. назад | Торрент скачан:46 раз
Скачать  

18-09-2016 18:22 Звездные врата: Вселенная Скачать торрент  

Звездные врата: Вселенная / Stargate Universe / Сезон 2 / Серии 1-20 из 20 «The Only Mission Is Survival»

Год выпуска: 2010
Страна: Канада, США
Жанр: Боевик, драма, фантастика, приключения
Продолжительность: 00:41:50 мин. х 20 серий
Перевод: Профессиональный многоголосый LostFilm

Режиссер: Энди Микита, Уильям Варинг, Питер ДеЛуис
Премьера в мире: 28 сентября 2010
В ролях: Robert Carlyle (Николас Раш), Louis Ferreira (Эверетт Янг), Brian J. Smith (Мэтью Скотт), Elyse Levesque (Хлоя Армстронг), David Blue (Илай Уоллес), Alaina Huffman (Тамара Йохансен), Jamil Walker Smith (Рональд Грир), Ming-Na (Камилла Рэй), Peter Kelamis (Адам Броуди), Patrick Gilmore (Дэйл Волкер), Jennifer Spence (Лиза Парк), Julia Benson (Ванесса Джеймс), Lou Diamond Phillips (Дэвид Тэлфорд)...
Описание: Полковник Янг (Луис Феррейра) и команда Дестини сражаются с солдатами Альянса за контроль над космическим кораблем. Большая часть экипажа высадилась на соседнюю планету. Полковник Дэвид Телфорд продолжает делать вид, что он на стороне Альянса, одновременно пытаясь помочь Янгу и его людям. Доктору Рашу (Роберт Карлайл), Эли Уолласу (Дэвид Блу) и Хлое (Элиз Левек) удается вынудить сражавшихся сдаться. Раш отправляет нескольких членов команды на ближайшую планету со Звездными Вратами. Янг и Рэй спорят по поводу того, можно ли оставить пленных из Альянса на одной из планет. Дестини находит древний космолет и пристыковывается к нему. Раш, Эли и ученые пытаются включить систему коммуникации корабля, чтобы связаться с Землей. Остальные осматривают корабль и находят инопланетянина. Полковник Янг решает поймать его, но ему и его собратьям удается сбежать. В ответ они прерывают связь людей с Землей.



Качество: WEB-DLRip
Формат: AVI
Видео кодек: XviD
Аудио кодек: MPEG Audio
Видео: 704x416, 1148 kbps, 23,976 fps, 0,205 bpp
Аудио#1: Русский, 195 Кбит/сек, 48,0 КГц, 2 канала, MPEG Audio
скриншот   скриншот   скриншот   скриншот  


Общее
Полное имя : E:\Stargate\Stargate Universe 2\Stargate.Universe.s02e05.rus.LostFilm.TV.avi
Формат : AVI
Формат/Информация : Audio Video Interleave
Размер файла : 422 Мбайт
Продолжительность : 43 м. 39 с.
Режим общего битрейта : Переменный
Общий поток : 1351 Кбит/сек
Программа кодирования : Nandub v1.0rc2
Библиотека кодирования : Nandub build 1853/release

Видео
Идентификатор : 0
Формат : MPEG-4 Visual
Профиль формата : Advanced Simple@L5
Параметр BVOP формата : 1
Параметр QPel формата : Нет
Параметр GMC формата : Без точки перехода
Параметр матрицы формата : Выборочная
Идентификатор кодека : XVID
Идентификатор кодека/Подсказка : XviD
Продолжительность : 43 м. 39 с.
Битрейт : 1148 Кбит/сек
Ширина : 704 пикселя
Высота : 416 пикселей
Соотношение сторон : 16:9
Частота кадров : 23,976 (23976/1000) кадра/сек
Цветовое пространство : YUV
Субдискретизация насыщенности : 4:2:0
Битовая глубина : 8 бит
Тип развёртки : Прогрессивная
Метод сжатия : С потерями
Бит/(Пиксели*Кадры) : 0.170
Размер потока : 359 Мбайт (85%)
Библиотека кодирования : XviD 1.2.1 (UTC 2008-12-04)

Аудио
Идентификатор : 1
Формат : MPEG Audio
Версия формата : Version 1
Профиль формата : Layer 3
Режим : Joint stereo
Расширение режима : MS Stereo
Идентификатор кодека : 55
Идентификатор кодека/Подсказка : MP3
Продолжительность : 43 м. 39 с.
Вид битрейта : Переменный
Битрейт : 195 Кбит/сек
Каналы : 2 канала
Частота : 48,0 КГц
Метод сжатия : С потерями
Размер потока : 59,5 Мбайт (14%)
Выравнивание : Соединение по промежуткам
Продолжительность промежутка : 24 мс. (0,58 видеокадр)
Время предзагрузки промежутка : 500 мс.
Библиотека кодирования : LAME3.97b


скриншот  pb.wtf



Скачать Звездные врата: Вселенная через торрент http://pic1.kartinco.top/images/10/q95d3.jpg Скачать фильм Звездные врата: Вселенная через торрент бесплантно в хорошем качестве Описание: Полковник Янг (Луис Феррейра) и команда Дестини сражаются с солдатами Альянса за контроль над космическим кораблем. Большая часть ... 10 10 7
Info! Золотая раздача, скачанное не засчитывается.
Торрент: Зарегистрирован [2016-09-18 18:22] · скачан: 46 раз
Статус: √ проверено
Размер: 8.54 GB
Как cкачать? Как скачать Звездные врата: Вселенная через торрент | qTorrent



Последний раз редактировалось: mailman13 (2016-09-18 20:34), всего редактировалось 2 раз(а)

28-11-2019 20:33  

Отключить всю рекламу на сайте

18-09-2016 18:34 Звездные врата: Вселенная Скачать торрент  

18-09-2016 18:49 Звездные врата: Вселенная Скачать торрент  

Ворон писал(а):

http://prntscr.com/cjih1q

Поправил.pb.wtf



18-09-2016 20:16 Звездные врата: Вселенная Скачать торрент  

mailman13, а в отчёте?
Нужно указывать тех.данные четко.pb.wtf



19-09-2016 10:25 Звездные врата: Вселенная Скачать торрент  

Ворон писал(а):

mailman13, а в отчёте?

Понятно, недосмотрел, исправил.pb.wtf



    Дорогой пользователь! Огромная просьба, поблагодарите релизера, оцените раздачу и оставьте свои комментарий, если Вы скачали Звездные врата: Вселенная через торрент бесплатно! Внесите свою лепту в развитие PiratBit!
    Комментировать посты могут только пользователи прошедшие не сложную регистрацию
    Показать сообщения:    

    Звездные врата: Вселенная через торрент
    Скачать бесплатно Звездные врата: Вселенная
    Звездные врата: Вселенная скачать торрент
    Звездные врата: Вселенная смотреть онлайн
    Cкачать фильм Звездные врата: Вселенная бесплатно
    Звездные врата: Вселенная скачать торрент в хорошем качестве
    Звездные врата: Вселенная смотреть онлайн бесплатно в хорошем качестве


    Вы не можете начинать темы
    Вы не можете отвечать на сообщения
    Вы не можете редактировать свои сообщения
    Вы не можете удалять свои сообщения
    Вы не можете голосовать в опросах
    Вы не можете прикреплять файлы к сообщениям
    Вы можете скачивать файлы