Ссылка на приватное зеркало нашего сайта всего за 1$. Внимание количество ограничено!!!

2 сезон

iTunes

1 сезон

1

iTunes

iTunes

iTunes

1 сезон

RePack

30

ИГРА 18+

pack

ВАЖНО

!!Акция!!

Alien_RageХит недели

RePack

MK11
pack

Забери бонус

RePack

jed

!!Акция!!

Alien_Rage

RePack

fifa19

RePack

Assassins Creed: Odyssey

RePack

NEED FOR SPEED™ PAYBACK

4 сезон

9 сезон

Бесстыжие 9 сезон

Все сериалы

все сериалы на PB.wtf

RePack

FAR CRY 5
  

Свой чужой сын (01-04 из 04) ( Александр Даруга, Олег Масленников) [2016, мелодрама, SATRip-AVC] pb.wtf

Свой чужой сын через торрент pb.wtf

Размер: 2.05 GB | Добавлен: 4 года 1 мес. назад | Торрент скачан:48 раз
Скачать  

18-09-2016 20:19 Свой чужой сын Скачать торрент  

Свой чужой сын




Год выпуска: 2016
Производство: Россия, Украина, Кинокомпания "Star Media"
Жанр: мелодрама
Продолжительность: ~ 00:44:00
Субтитры: украинские,вшитые



Режиссёр: Александр Даруга, Олег Масленников



В ролях: Марина Коняшкина, Вениамин Прибура, Дмитрий Сова, Евгений Воловенко, Елена Еременко, Игорь Петрусенко, Алексей Нагрудный.




Описание: Анна замужем за Вадимом , владельцем строительной фирмы. Первая жена Вадима умерла, их сын Егор учится в Лондоне в технической школе. Большая разница в возрасте сказывается на отношениях Анны и Вадима, они больше смахивают на отношения отца и дочери.
Анна благодарна Вадиму за все, что он для нее делает, но огорчается, что он не воспринимает ее всерьез – Анна мечтает стать известным фотографом. Серьезно осложняет взаимоотношения между Анной и Вадимом Егор, решивший приехать на каникулы. Пасынок объявляет Анне настоящую войну, считая, что она вышла замуж за отца только из-за денег. Анна в отчаянии, она совершает ошибку, которая приводит к цепочке фатальных событий, закончившихся автокатастрофой. В ней погибает Вадим, а Егор получает тяжелейшую травму позвоночника. Вердикт врачей суров – мальчик не сможет ходить.







Качество: SATRip-AVC
Формат: MKV
Видео кодек: H.264
Аудио кодек: AC3
Видео: MPEG-4 AVC, 720х400,25fps,~1500 Кбит/сек,Bits/Pixel 0.208
Аудио: AC3, 48 kHz, ~192 Kbps, 2 канала



Общее
Уникальный идентификатор : 251828706110352958308694633017874092499 (0xBD7471D1016E24B597A8599EB6B491D3)
Полное имя : J:\Свой чужой сын\01 серия_Свой чужой сын_rip by_Aleksan55.mkv
Формат : Matroska
Версия формата : Version 2
Размер файла : 540 Мбайт
Продолжительность : 44 м.
Общий поток : 1693 Кбит/сек
Дата кодирования : UTC 2016-09-17 21:08:56
Программа кодирования : mkvmerge v7.8.0 ('River Man') 32bit built on Apr 3 2015 12:11:22
Библиотека кодирования : libebml v1.3.1 + libmatroska v1.4.2

Видео
Идентификатор : 1
Формат : AVC
Формат/Информация : Advanced Video Codec
Профиль формата : High@L4.1
Параметр CABAC формата : Да
Параметр ReFrames формата : 12 кадров
Идентификатор кодека : V_MPEG4/ISO/AVC
Продолжительность : 44 м.
Битрейт : 1500 Кбит/сек
Ширина : 720 пикселей
Высота : 400 пикселей
Соотношение сторон : 16:9
Режим частоты кадров : Постоянный
Частота кадров : 25,000 кадров/сек
Цветовое пространство : YUV
Субдискретизация насыщенности : 4:2:0
Битовая глубина : 8 бит
Тип развёртки : Прогрессивная
Бит/(Пиксели*Кадры) : 0.208
Размер потока : 468 Мбайт (87%)
Библиотека кодирования : x264 core 148 r2638 7599210
Настройки программы : cabac=1 / ref=12 / deblock=1:0:0 / analyse=0x3:0x133 / me=umh / subme=9 / psy=1 / psy_rd=1.00:0.00 / mixed_ref=0 / me_range=32 / chroma_me=1 / trellis=2 / 8x8dct=1 / cqm=0 / deadzone=21,11 / fast_pskip=0 / chroma_qp_offset=-2 / threads=4 / lookahead_threads=4 / sliced_threads=0 / nr=0 / decimate=0 / interlaced=0 / bluray_compat=0 / constrained_intra=0 / bframes=12 / b_pyramid=2 / b_adapt=2 / b_bias=0 / direct=3 / weightb=1 / open_gop=0 / weightp=2 / keyint=250 / keyint_min=25 / scenecut=40 / intra_refresh=0 / rc=2pass / mbtree=0 / bitrate=1500 / ratetol=1.0 / qcomp=1.00 / qpmin=0 / qpmax=29 / qpstep=4 / cplxblur=20.0 / qblur=0.5 / ip_ratio=1.10 / pb_ratio=1.10 / aq=1:1.00
Default : Да
Forced : Нет
Цветовой диапазон : Limited
Основные цвета : BT.601 PAL
Характеристики трансфера : BT.470 System B, BT.470 System G
Коэффициенты матрицы : BT.601

Аудио
Идентификатор : 2
Формат : AC-3
Формат/Информация : Audio Coding 3
Расширение режима : CM (complete main)
Параметр Endianness формата : Big
Идентификатор кодека : A_AC3
Продолжительность : 44 м.
Вид битрейта : Постоянный
Битрейт : 192 Кбит/сек
Каналы : 1 канал
Расположение каналов : Front: C
Частота : 48,0 КГц
Метод сжатия : С потерями
Размер потока : 61,2 Мбайт (11%)
Default : Да
Forced : Нет


Рекламы нет.pb.wtf



Скачать Свой чужой сын через торрент http://s017.radikal.ru/i405/1609/e7/59d137156d8f.jpg Скачать фильм Свой чужой сын через торрент бесплантно в хорошем качестве Описание: Анна замужем за Вадимом , владельцем строительной фирмы. Первая жена Вадима умерла, их сын Егор учится в Лондоне в технической ... 10 10 1
Торрент: Зарегистрирован [2016-09-18 20:19] · скачан: 48 раз
Статус: √ проверено
Размер: 2.05 GB
Как cкачать? Как скачать Свой чужой сын через торрент | qTorrent

% Раздел Тема Автор DL S | L
Наши сериалы [ 2.2 GB ] Свой чужой сын / 1 сезон / 1-4 серии из 4 [2016 WEB-DLRip-AVC] bober100 Скачать
1 | 0

28-11-2019 20:33  

Отключить всю рекламу на сайте

    Дорогой пользователь! Огромная просьба, поблагодарите релизера, оцените раздачу и оставьте свои комментарий, если Вы скачали Свой чужой сын через торрент бесплатно! Внесите свою лепту в развитие PiratBit!
    Комментировать посты могут только пользователи прошедшие не сложную регистрацию
    Показать сообщения:    

    Свой чужой сын через торрент
    Скачать бесплатно Свой чужой сын
    Свой чужой сын скачать торрент
    Свой чужой сын смотреть онлайн
    Cкачать фильм Свой чужой сын бесплатно
    Свой чужой сын скачать торрент в хорошем качестве
    Свой чужой сын смотреть онлайн бесплатно в хорошем качестве


    Вы не можете начинать темы
    Вы не можете отвечать на сообщения
    Вы не можете редактировать свои сообщения
    Вы не можете удалять свои сообщения
    Вы не можете голосовать в опросах
    Вы не можете прикреплять файлы к сообщениям
    Вы можете скачивать файлы