Ссылка на приватное зеркало нашего сайта всего за 1$. Внимание количество ограничено!!!

2 сезон

iTunes

1 сезон

1

2 сезон

2 сезон

iTunes

1 сезон

RePack

30

Ultimate

ВАЖНО

ИГРА 18+

pack

RePack

MK11
pack

Забери бонус

RePack

jed

!!Акция!!

Alien_Rage

RePack

fifa19

RePack

Assassins Creed: Odyssey

RePack

NEED FOR SPEED™ PAYBACK

4 сезон

9 сезон

Бесстыжие 9 сезон

Все сериалы

все сериалы на PB.wtf

RePack

FAR CRY 5
  

Слепая зона / Слепое пятно / Blindspot / Сезон: 2 / Серии 1-22 из 22 (Маркос Сига / Marcos Siega, Марк Пеллингтон / Mark Pellington, Роб Шейденгланц / Rob Seidenglanz) [2016, США, триллер, драма, криминал, WEB-DLRip-AVC] MVO [NewStudio] pb.wtf

Слепая зона через торрент pb.wtf

Размер: 17.78 GB | Добавлен: 3 года 3 мес. назад | Торрент скачан:28 раз
Скачать  

19-09-2016 00:27 Слепая зона Скачать торрент  


Слепая зона / Слепое пятно / Blindspot

«Восстановить ее прошлое. Одна татуировка - одино событие»


  • Год выпуска: 2016
  • Страна: США
  • Жанр: триллер, драма, криминал, детектив
  • Продолжительность: 00:42:28 (Серия)
  • Перевод: Профессиональный многоголосый
  • Режиссер: Маркос Сига / Marcos Siega, Марк Пеллингтон / Mark Pellington, Роб Шейденгланц / Rob Seidenglanz
  • В ролях:

    Джейми Александер (Jane Doe), Салливан Степлтон (Kurt Weller), Одри Эспарза (Tasha Zapata), Роб Браун (Edgar Reade), Эшли Джонсон (Patterson), Аквели Роач (Dr. Robert Borden), Марианн Жан-Батист (Bethany Mayfair), Келли П. Уильямс (FBI Agent), Франсуа Арно (Oscar), Джордана Спиро (Sarah Weller), Джей О. Сэндерс (Bill Weller), Триесте Келли Данн (Allison Knight)


  • Сериал рассказывает о потерявшей свою память девушке, которая оказывается в центре расследования после того, как смогла выбраться из брезентового мешка на Таймс Сквер. Не имея ни малейшего представления о том, кто она такая, девушка не знает, что обозначают многочисленные загадочные татуировки, которыми покрыто все ее тело. Когда выясняется, что татуировки являются чем-то вроде дорожной карты, к делу подключается ФБР.
  • Рейтинг:



  • Качество: WEB-DLRip-AVC
  • Формат: :MPEG-4
  • Видео кодек: AVC
  • Аудио кодек: AC3
  • Видео: 1024x574 (16:9), 1904 kbps, 23,976 fps, 0,135 bpp
  • Аудио №1: русский / 5.1 / 48 kHz / 384 kbps / 16 bit |[NewStudio]|
  • Аудио №2: английский / 5.1 / 48 kHz / 384 kbps / 16 bit
  • Релиз от: GEKADOL

    Внимание! Раздача ведётся путём добавления новых серий; при каждом добавлении создаётся новый торрент. Чтобы начать докачку новой серии, пользователям необходимо сделать следующее:
    (1) остановить скачивание,
    (2) удалить старый торрент у себя из клиента (старые серии удалять не надо),
    (3) скачать новый торрент и запустить его у себя в клиенте вместо старого, при этом указать клиенту путь в старую папку куда и должно происходить скачивание новых серий.
    Ваш клиент при этом должен произвести хеширование (проверку) старой папки (если не производит сам - помогите ему сделать это), и будет докачивать только те серии которых у вас ещё нет. Старые серии при этом не удаляются, а продолжают раздаваться!
    Eсли вы уже удалили старые серии, то предотвратить повторную закачку старых серий можно, отжав галочку в соответсnвующих местах при запуске нового торрента. По возможности, желательно не удалять старые серии как можно дольше чтобы релизёр не столько продолжал раздавать старые серии, а смог сконцентрироваться на новых.

    Общее
    Полное имя : H:\Слепая зона (Сезон 2)\Blindspot.s02e17.WEB-DLRip-AVC.NewStudio.TV.mp4
    Формат : MPEG-4
    Профиль формата : Base Media
    Идентификатор кодека : isom (isom/iso2/avc1/mp41)
    Размер файла : 840 Мбайт
    Продолжительность : 42 м. 24 с.
    Общий поток : 2769 Кбит/сек
    Программа кодирования : XviD4PSP 7.0.374 DAILY
    HDVideo : Yes
    encoding_info : MATROSKA / WEBM > MP4 Произвольный / H264 > X264 CBR 2000kbps HQ / AC3 > AC3 CBR 384kbps / AC3 > AC3 CBR 384kbps

    Видео
    Идентификатор : 1
    Формат : AVC
    Формат/Информация : Advanced Video Codec
    Профиль формата : High@L4.1
    Параметр CABAC формата : Да
    Параметр ReFrames формата : 4 кадра
    Идентификатор кодека : avc1
    Идентификатор кодека/Информация : Advanced Video Coding
    Продолжительность : 42 м. 24 с.
    Битрейт : 2000 Кбит/сек
    Ширина : 1024 пикселя
    Высота : 574 пикселя
    Соотношение сторон : 16:9
    Режим частоты кадров : Постоянный
    Частота кадров : 23,976 (24000/1001) кадра/сек
    Цветовое пространство : YUV
    Субдискретизация насыщенности : 4:2:0
    Битовая глубина : 8 бит
    Тип развёртки : Прогрессивная
    Бит/(Пиксели*Кадры) : 0.142
    Размер потока : 606 Мбайт (72%)
    Библиотека кодирования : x264 core 148 r2762M 90a61ec
    Настройки программы : cabac=1 / ref=3 / deblock=1:-1:-1 / analyse=0x3:0x133 / me=hex / subme=7 / psy=1 / psy_rd=1.00:0.20 / mixed_ref=1 / me_range=16 / chroma_me=1 / trellis=1 / 8x8dct=1 / cqm=0 / deadzone=21,11 / fast_pskip=1 / chroma_qp_offset=-3 / threads=5 / lookahead_threads=1 / sliced_threads=0 / nr=0 / decimate=1 / interlaced=0 / bluray_compat=0 / constrained_intra=0 / bframes=3 / b_pyramid=2 / b_adapt=2 / b_bias=0 / direct=3 / weightb=1 / open_gop=0 / weightp=2 / keyint=230 / keyint_min=23 / scenecut=40 / intra_refresh=0 / rc_lookahead=40 / rc=cbr / mbtree=1 / bitrate=2000 / ratetol=1.0 / qcomp=0.60 / qpmin=0 / qpmax=69 / qpstep=4 / vbv_maxrate=2000 / vbv_bufsize=30000 / nal_hrd=none / filler=0 / ip_ratio=1.40 / aq=1:1.00
    Язык : English
    Цветовой диапазон : Limited
    Основные цвета : BT.709
    Характеристики трансфера : BT.709
    Коэффициенты матрицы : BT.709

    Аудио #1
    Идентификатор : 2
    Формат : AC-3
    Формат/Информация : Audio Coding 3
    Расширение режима : CM (complete main)
    Параметр Endianness формата : Big
    Идентификатор кодека : ac-3
    Продолжительность : 42 м. 24 с.
    Вид битрейта : Постоянный
    Битрейт : 384 Кбит/сек
    Каналы : 6 каналов
    Расположение каналов : Front: L C R, Side: L R, LFE
    Частота : 48,0 КГц
    Частота кадров : 31,250 кадров/сек (1536 spf)
    Битовая глубина : 16 бит
    Метод сжатия : С потерями
    Размер потока : 116 Мбайт (14%)
    Язык : Russian
    Default : Да
    Alternate group : 1

    Аудио #2
    Идентификатор : 3
    Формат : AC-3
    Формат/Информация : Audio Coding 3
    Расширение режима : CM (complete main)
    Параметр Endianness формата : Big
    Идентификатор кодека : ac-3
    Продолжительность : 42 м. 24 с.
    Вид битрейта : Постоянный
    Битрейт : 384 Кбит/сек
    Каналы : 6 каналов
    Расположение каналов : Front: L C R, Side: L R, LFE
    Частота : 48,0 КГц
    Частота кадров : 31,250 кадров/сек (1536 spf)
    Битовая глубина : 16 бит
    Метод сжатия : С потерями
    Размер потока : 116 Мбайт (14%)
    Язык : English
    Default : Да
    Alternate group : 2



    Скриншоты:
    скриншот   скриншот   скриншот   скриншот   скриншот   скриншот   скриншот  
    скриншот  

    Раздача ведётся путём добавления новых серий. Добавлена 22 серия (24.05.2017).Просьба перекачать торрент файл.

    pb.wtf



  • Скачать Слепая зона через торрент http://pic1.kartinco.top/images/10/7tpat.jpg Скачать фильм Слепая зона через торрент бесплантно в хорошем качестве qw.png Сериал рассказывает о потерявшей свою память девушке, которая оказывается в центре расследования после того, как смогла выбраться ... 9.4 10 24
    Info! Золотая раздача, скачанное не засчитывается.
    Торрент: Зарегистрирован [2017-08-06 01:04] · скачан: 28 раз
    Статус: √ проверено
    Размер: 17.78 GB
    Как cкачать? Как скачать Слепая зона через торрент | qTorrent

    % Раздел Тема Автор DL S | L
    Зарубежные сериалы [ 39.16 GB ] Слепая зона / Слепое пятно / Blindspot / Сезон: 2 / Серии 1-22 из 22 [2016 WEB-DL 1080p] MVO [AlexFilm] bober100 Скачать
    1 | 0


    Последний раз редактировалось: GEKADOL (2017-08-06 01:04), всего редактировалось 26 раз(а)

    28-11-2019 20:33  

    Отключить всю рекламу на сайте

    05-10-2016 15:52 Слепая зона Скачать торрент  

    Что то не идет (скачивание) ?pb.wtf



    11-10-2016 17:52 Слепая зона Скачать торрент  

    Спасибо! Когда 4 серия?pb.wtf



    13-10-2016 01:09 Слепая зона Скачать торрент  

    _PsiX_ писал(а):

    Спасибо! Когда 4 серия?

    Вот она pb.wtf



    16-11-2016 21:52 Слепая зона Скачать торрент  

    Супер сериал!Озолотил торрент раздачу)pb.wtf



    04-12-2016 17:01 Слепая зона Скачать торрент  

    10 серия теперь 4 января ужассpb.wtf



    19-12-2016 14:58 Слепая зона Скачать торрент  

    Все умерли что-ли ????pb.wtf



    10-01-2017 00:49 Слепая зона Скачать торрент  

    jacado писал(а):

    Все умерли что-ли ????

    Да нет Перерыв как всегда) pb.wtf



    06-08-2017 13:28 Слепая зона Скачать торрент  

    Что с раздачей???? 3тий день нет скорости!pb.wtf



      Дорогой пользователь! Огромная просьба, поблагодарите релизера, оцените раздачу и оставьте свои комментарий, если Вы скачали Слепая зона через торрент бесплатно! Внесите свою лепту в развитие PiratBit!
      Комментировать посты могут только пользователи прошедшие не сложную регистрацию
      Показать сообщения:    

      Слепая зона через торрент
      Скачать бесплатно Слепая зона
      Слепая зона скачать торрент
      Слепая зона смотреть онлайн
      Cкачать фильм Слепая зона бесплатно
      Слепая зона скачать торрент в хорошем качестве
      Слепая зона смотреть онлайн бесплатно в хорошем качестве


      Вы не можете начинать темы
      Вы не можете отвечать на сообщения
      Вы не можете редактировать свои сообщения
      Вы не можете удалять свои сообщения
      Вы не можете голосовать в опросах
      Вы не можете прикреплять файлы к сообщениям
      Вы можете скачивать файлы