MEGA SALE -50% FORZA HORIZON 4 ULTIMATE+ВСЕ DLC+ОНЛАЙН всего за 599р. 299 руб. (супер цена). Внимание количество ограничено!!!

iTunes

1+1

iTunes

мы

iTunes

1

iTunes

Чернобыль

1 сезон

Ральф против интернета

Лицензия

ПШазам

Лицензия

Игра престолов

Лицензия

30
pack

ВАЖНО

!!Акция!!

Alien_RageХит недели

RePack

Resident Evil 21

ИГРА 18+

pack

RePack

Metro:Exodus

!!Акция!!

Alien_Rage

RePack

fifa19

RePack

Assassins Creed: Odyssey

RePack

NEED FOR SPEED™ PAYBACK

3 сезон

9 сезон

Бесстыжие 9 сезон

Все сериалы

все сериалы на PB.wtf

RePack

FAR CRY 5
Ребята, катастрофически не хватает 7730р. для оплаты серверов за ИЮЛЬ (всвязи с блокировками трафик упал в 3 раза), 1-2р., выручайте.
  

Пустоши / Badlands (Терренс Малик) [1973 г., драма, криминал, BDRip-AVC] DVO pb.wtf

Пустоши через торрент pb.wtf

Размер: 2.18 GB | Добавлен: 2 года 11 мес. назад | Торрент скачан:6 раз
Скачать  

19-09-2016 06:13 Пустоши Скачать торрент  

Пустоши / Badlands
Год выпуска: 1973
Страна: США
Жанр: драма, криминал
Продолжительность: 01:33:58
Перевод: Профессиональный (двухголосый)
Субтитры: Русские, английские

Режиссер: Терренс Малик

Премьера в мире: 13 октября 1973

rating

В ролях: Мартин Шин, Сисси Спейсек, Уоррен Оутс, Рамон Биери, Алан Винт, Гэри Литтлджон, Джон Картер, Брайан Монтгомери, Ховард Рэгсдэйл, Джон Уомэк мл., Дона Болдуин, Бен Браво, Терренс Малик

Описание: В 1959 году юноша по имени Кит и его несовершеннолетняя подружка Холли пускаются в бега после убийства отца Холли, запрещавшего им встречаться.
Направляясь к пустошам Монтаны, парочка совершает на своем пути череду хладнокровных убийств.

Качество: BDRip-AVC (Badlands.1973.1080p.Remux)
Формат: MKV
Видео кодек: x264
Аудио кодек: AC3
Видео: MPEG-4 AVC, 2932 Кбит/с, 1024x560, 23.976 кадр/с
Аудио#1: AC3, 2 ch, 192 Кбит/с, 48 kHz | Русский
Аудио#2: АС3, 1 ch, 192 Кбит/с, 48 kHz | Английский
Релиз от: Koenig
Общее
Уникальный идентификатор : 177436312663138106996064476499027399940 (0x857CFDA39FD51EE0A63E6A59D6339504)
Полное имя : Badlands.1973.BDRip-AVC.mkv
Формат : Matroska
Версия формата : Version 4 / Version 2
Размер файла : 2,18 Гбайт
Продолжительность : 1 ч. 33 м.
Общий поток : 3317 Кбит/сек
Дата кодирования : UTC 2016-09-19 04:20:35
Программа кодирования : mkvmerge v9.2.0 ('Photograph') 32bit
Библиотека кодирования : libebml v1.3.3 + libmatroska v1.4.4
Обложка : Yes
Attachments : cover.jpg
DIRECTOR : Terrence Malick
RELEASE : Koenig

Видео
Идентификатор : 1
Формат : AVC
Формат/Информация : Advanced Video Codec
Профиль формата : High@L4.1
Параметр CABAC формата : Да
Параметр ReFrames формата : 9 кадров
Идентификатор кодека : V_MPEG4/ISO/AVC
Продолжительность : 1 ч. 33 м.
Битрейт : 2932 Кбит/сек
Ширина : 1024 пикселя
Высота : 560 пикселей
Соотношение сторон : 1,85:1
Режим частоты кадров : Постоянный
Частота кадров : 23,976 (24000/1001) кадра/сек
Цветовое пространство : YUV
Субдискретизация насыщенности : 4:2:0
Битовая глубина : 8 бит
Тип развёртки : Прогрессивная
Бит/(Пиксели*Кадры) : 0.213
Размер потока : 1,92 Гбайт (88%)
Библиотека кодирования : x264 core 148 r2692 64f4e24
Настройки программы : cabac=1 / ref=9 / deblock=1:-3:-3 / analyse=0x3:0x133 / me=umh / subme=10 / psy=1 / psy_rd=1.00:0.05 / mixed_ref=1 / me_range=32 / chroma_me=1 / trellis=2 / 8x8dct=1 / cqm=0 / deadzone=21,11 / fast_pskip=0 / chroma_qp_offset=-3 / threads=3 / lookahead_threads=1 / sliced_threads=0 / nr=0 / decimate=1 / interlaced=0 / bluray_compat=0 / constrained_intra=0 / bframes=10 / b_pyramid=2 / b_adapt=2 / b_bias=0 / direct=3 / weightb=1 / open_gop=0 / weightp=2 / keyint=240 / keyint_min=23 / scenecut=40 / intra_refresh=0 / rc_lookahead=40 / rc=2pass / mbtree=1 / bitrate=2932 / ratetol=1.0 / qcomp=0.60 / qpmin=10 / qpmax=51 / qpstep=4 / cplxblur=20.0 / qblur=0.5 / vbv_maxrate=50000 / vbv_bufsize=62500 / nal_hrd=none / filler=0 / ip_ratio=1.40 / aq=1:1.00
Default : Да
Forced : Нет

Аудио #1
Идентификатор : 2
Формат : AC-3
Формат/Информация : Audio Coding 3
Расширение режима : CM (complete main)
Параметр Endianness формата : Big
Идентификатор кодека : A_AC3
Продолжительность : 1 ч. 33 м.
Вид битрейта : Постоянный
Битрейт : 192 Кбит/сек
Каналы : 2 канала
Расположение каналов : Front: L R
Частота : 48,0 КГц
Частота кадров : 31,250 кадров/сек (1536 spf)
Метод сжатия : С потерями
Размер потока : 129 Мбайт (6%)
Заголовок : DVO
Язык : Russian
Default : Да
Forced : Нет

Аудио #2
Идентификатор : 3
Формат : AC-3
Формат/Информация : Audio Coding 3
Расширение режима : CM (complete main)
Параметр Endianness формата : Big
Идентификатор кодека : A_AC3
Продолжительность : 1 ч. 33 м.
Вид битрейта : Постоянный
Битрейт : 192 Кбит/сек
Каналы : 1 канал
Расположение каналов : Front: C
Частота : 48,0 КГц
Частота кадров : 31,250 кадров/сек (1536 spf)
Метод сжатия : С потерями
Размер потока : 129 Мбайт (6%)
Заголовок : Original
Язык : English
Default : Нет
Forced : Нет

Текст #1
Идентификатор : 4
Формат : UTF-8
Идентификатор кодека : S_TEXT/UTF8
Идентификатор кодека/Информация : UTF-8 Plain Text
Продолжительность : 1 ч. 30 м.
Битрейт : 87 бит/сек
Count of elements : 1000
Размер потока : 57,7 Кбайт (0%)
Заголовок : Дарья Розеншейн
Язык : Russian
Default : Да
Forced : Нет

Текст #2
Идентификатор : 5
Формат : UTF-8
Идентификатор кодека : S_TEXT/UTF8
Идентификатор кодека/Информация : UTF-8 Plain Text
Продолжительность : 1 ч. 29 м.
Битрейт : 57 бит/сек
Count of elements : 975
Размер потока : 37,7 Кбайт (0%)
Заголовок : Full
Язык : English
Default : Нет
Forced : Нет

Меню
00:00:00.000 : en:Kit
00:07:20.606 : en:"Days Of Happiness"
00:15:23.297 : en:Holly's Punishment
00:19:07.980 : en:Murder
00:23:27.155 : en:Big Decision
00:31:00.859 : en:A New Life
00:41:10.759 : en:Cato
00:46:03.969 : en:"Shoot All Witnesses"
00:54:19.422 : en:The Rich Man
01:01:30.061 : en:"Our Headlong Way"
01:09:43.220 : en:The End Nears
01:14:18.454 : en:Caught
01:25:22.242 : en:Sentenced

pb.wtf



Скачать Пустоши через торрент http://pic1.kartinco.top/images/10/reqvl.jpg Скачать фильм Пустоши через торрент бесплантно в хорошем качестве Описание: В 1959 году юноша по имени Кит и его несовершеннолетняя подружка Холли пускаются в бега после убийства отца Холли, запрещавшего ... 10 10 1
Info! Золотая раздача, скачанное не засчитывается.
Торрент: Зарегистрирован [2016-09-19 06:13] · скачан: 6 раз
Статус: √ проверено
Размер: 2.18 GB
Как cкачать? Как скачать Пустоши через торрент | qTorrent

% Раздел Тема Автор DL S | L
Фильмы (Blu-ray, BD-Remux, HDDVD) [ 23.94 GB ] Пустоши / Badlands [1973 Blu-Ray Remux DVO AVO VO Original] кэп Скачать
1 | 0


>> Регистрируемся здесь <<






Отзывы и комментарии о схеме читаем и пишем здесь: ---> Отзывы и комментарии о схеме

Новые благодарочки в телеграм довольных пользователей:
скриншот   скриншот   скриншот   скриншот   скриншот
    Дорогой пользователь! Огромная просьба, поблагодарите релизера, оцените раздачу и оставьте свои комментарий, если Вы скачали Пустоши через торрент бесплатно! Внесите свою лепту в развитие PiratBit!
    Комментировать посты могут только пользователи прошедшие не сложную регистрацию
    Показать сообщения:    

    Пустоши через торрент
    Скачать бесплатно Пустоши
    Пустоши скачать торрент
    Пустоши смотреть онлайн
    Cкачать фильм Пустоши бесплатно
    Пустоши скачать торрент в хорошем качестве
    Пустоши смотреть онлайн бесплатно в хорошем качестве


    Вы не можете начинать темы
    Вы не можете отвечать на сообщения
    Вы не можете редактировать свои сообщения
    Вы не можете удалять свои сообщения
    Вы не можете голосовать в опросах
    Вы не можете прикреплять файлы к сообщениям
    Вы можете скачивать файлы