>

7.4

iTunes

7.4

2 сезон

9.4

1 сезон

1

7.4

2 сезон

7.2

iTunes

6.0

MVO

13

6.1

iTunes

8.3

Пиратка

30

ULTIMATE

pack

9.9

Лицензия

ВАЖНО

ИГРА 18+

pack

7.3

RePack

MK11

7.7

RePack

jed

7.8

RePack

fifa19

8.5

RePack

RDR2

RePack

NEED FOR SPEED™ PAYBACK

1 сезон

9 сезон

Бесстыжие 9 сезон

Все сериалы

все сериалы на PB.wtf

RePack

FAR CRY 5

Anonymous, доброе утро, мы катастрофически не успеваем собрать деньги на оплату серверов, помогите нам пожалуйста 5,10,15р., для нас важна любая помощь . В качестве благодарности мы отключим Вам всю рекламу на сайте (укажите свой ник в строку Ваше имя)!

×
  
Magnet ссылка

Шматрица / The Matrix (Лана Вачовски, Лилли Вачовски) [1999 г., фантастика, боевик, BDRip 720p] AVO pb.wtf

Шматрица через торрент pb.wtf

Размер: 7.07 GB | Добавлен: 5 лет 3 мес. назад | Торрент скачан:17 раз
Смотреть онлайн Шматрица | Скачать    Ребята, помогите собрать деньги на оплату серверов!!!

19-09-2016 20:17 Шматрица Скачать торрент  

Шматрица / The Matrix
Год выпуска: 1999
Страна: США
Жанр: фантастика, боевик
Продолжительность: 02:17:06
Перевод: Авторский (одноголосый)(Гоблин)
Субтитры: отсутствуют

Режиссер: Лана Вачовски, Лилли Вачовски

В ролях:

Киану Ривз, Лоренс Фишбёрн, Кэрри-Энн Мосс, Хьюго Уивинг, Джо Пантольяно, Глория Фостер, Маркус Чонг, Джулиан Араханга, Мэтт Доран, Белинда МакКлори

Описание:

Жизнь Томаса Андерсона разделена на две части: днём он самый обычный офисный работник, получающий нагоняи от начальства, а ночью превращается в хакера по имени Нео, и нет места в сети, куда он не смог бы дотянуться. Но однажды всё меняется — герой, сам того не желая, узнаёт страшную правду: всё, что его окружает — не более, чем иллюзия, Матрица, а люди — всего лишь источник питания для искусственного интеллекта, поработившего человечество. И только Нео под силу изменить расстановку сил в этом ставшем вдруг чужим и страшным мире.

Качество:BDRip 720p
Формат: MKV
Видео кодек: H.264
Аудио кодек: AC3

rating

Видео: 1280x536p (2.40:1), 23.976 fps, MPEG-4 AVC (x264), High@L4.1, ~ 7223 kbps avg, 0.439 bit/pixel
Аудио#1: RUS: 48 kHz, AC3, 2 ch ~ 256 kbps Авторский (одноголосый)(Гоблин)
Общее
Уникальный идентификатор : 184167586608898549776708258273217569718 (0x8A8D63115AC97AB0BB407281B69D63B6)
Полное имя : F:\TREKER\ТЕМР\shmatrix_[my-tfile.org].mkv
Формат : Matroska
Версия формата : Version 2
Размер файла : 7,07 Гбайт
Продолжительность : 2 ч. 17 м.
Общий поток : 7378 Кбит/сек
Название фильма : shmatrix_[my-tfile.org]
Дата кодирования : UTC 2016-09-04 04:04:59
Программа кодирования : mkvmerge v4.0.0 ('The Stars were mine') сборка от Jun 6 2010 16:18:42
Библиотека кодирования : libebml v1.0.0 + libmatroska v1.0.0
Attachements : cover.jpg

Видео
Идентификатор : 1
Формат : AVC
Формат/Информация : Advanced Video Codec
Профиль формата : High@L4.1
Параметр CABAC формата : Да
Параметр ReFrames формата : 6 кадров
Идентификатор кодека : V_MPEG4/ISO/AVC
Продолжительность : 2 ч. 17 м.
Битрейт : 7223 Кбит/сек
Ширина : 1280 пикселей
Высота : 536 пикселей
Соотношение сторон : 2,40:1
Режим частоты кадров : Постоянный
Частота кадров : 23,976 кадра/сек
Цветовое пространство : YUV
Субдискретизация насыщенности : 4:2:0
Битовая глубина : 8 бит
Тип развёртки : Прогрессивная
Бит/(Пиксели*Кадры) : 0.439
Размер потока : 6,68 Гбайт (95%)
Библиотека кодирования : x264 core 146 r2538 121396c
Настройки программы : cabac=1 / ref=6 / deblock=1:-1:-1 / analyse=0x3:0x133 / me=umh / subme=10 / psy=1 / psy_rd=1.00:0.15 / mixed_ref=1 / me_range=24 / chroma_me=1 / trellis=2 / 8x8dct=1 / cqm=0 / deadzone=21,11 / fast_pskip=0 / chroma_qp_offset=-3 / threads=12 / lookahead_threads=1 / sliced_threads=0 / nr=0 / decimate=1 / interlaced=0 / bluray_compat=0 / constrained_intra=0 / bframes=3 / b_pyramid=2 / b_adapt=2 / b_bias=0 / direct=1 / weightb=1 / open_gop=0 / weightp=2 / keyint=250 / keyint_min=23 / scenecut=40 / intra_refresh=0 / rc_lookahead=50 / rc=abr / mbtree=1 / bitrate=7223 / ratetol=1.0 / qcomp=0.69 / qpmin=0 / qpmax=69 / qpstep=4 / ip_ratio=1.40 / aq=1:1.00
Default : Нет
Forced : Нет

Аудио
Идентификатор : 2
Формат : AC-3
Формат/Информация : Audio Coding 3
Расширение режима : CM (complete main)
Параметр Endianness формата : Big
Идентификатор кодека : A_AC3
Продолжительность : 2 ч. 17 м.
Вид битрейта : Постоянный
Битрейт : 256 Кбит/сек
Каналы : 2 канала
Расположение каналов : Front: L R
Частота : 48,0 КГц
Метод сжатия : С потерями
Размер потока : 251 Мбайт (3%)
Заголовок : Авторский одноголосый ( Гоблин )
Default : Нет
Forced : Нет

Меню
00:00:00.000 : en:
00:12:00.000 : en:
00:24:00.000 : en:
00:36:00.000 : en:
00:48:00.000 : en:
01:00:00.000 : en:
01:12:00.000 : en:
01:24:00.000 : en:
01:36:00.000 : en:
01:48:00.000 : en:
02:00:00.000 : en:
02:12:00.000 : en:
скриншот  скриншот  скриншот  скриншот  
pb.wtf



Скачать Шматрица через торрент https://pic1.kartinco.top/images/10/lgsf2.jpg Скачать, смотреть онлайн Шматрица бесплантно в хорошем качестве Описание: Жизнь Томаса Андерсона разделена на две части: днём он самый обычный офисный работник, получающий нагоняи от начальства, а ночью ... 9.4 10 14
Info! Золотая раздача, скачанное не засчитывается.
Торрент: Зарегистрирован [2016-09-19 20:17] · скачан: 17 раз
Статус: √ проверено
Размер: 7.07 GB
Как cкачать? Как скачать Шматрица через торрент | UTorrent

% Раздел Тема Автор DL S | L
Фильмы с авторской озвучкой [ 5.18 GB ] Шматрица / The Matrix [1999 пародия BDRip 1080p] [AVO] killermax2013 Скачать
1 | 0


Последний раз редактировалось: bober100 (2016-09-19 20:36), всего редактировалось 1 раз

28-11-2019 20:33  

Отключить всю рекламу на сайте

19-09-2016 20:39 Шматрица Скачать торрент  

bober100, Встань на раздачу pb.wtf



19-09-2016 21:00 Шматрица Скачать торрент  

bober100, Молодчага pb.wtf



19-09-2016 21:02 Шматрица Скачать торрент  

Ворон, готова!!! pb.wtf



20-09-2016 12:04 Шматрица Скачать торрент  

неАлексей писал(а):

bober100, Молодчага

Не за что) pb.wtf



14-09-2021 18:31 Шматрица Скачать торрент  

bober100 писал(а):

неАлексей писал(а):

bober100, Молодчага

Не за что)

Молодчага, будь добр дай оценить сие произведение в твоей редакции!pb.wtf



    Дорогой пользователь! Огромная просьба, поблагодарите релизера, оцените раздачу и оставьте свои комментарий, если Вы скачали Шматрица через торрент бесплатно!
    Комментировать посты могут только пользователи прошедшие не сложную регистрацию
    Показать сообщения:    

    Шматрица через торрент
    Скачать бесплатно Шматрица
    Шматрица скачать торрент
    Шматрица смотреть онлайн
    Cкачать фильм Шматрица бесплатно
    Шматрица скачать торрент в хорошем качестве
    Шматрица смотреть онлайн бесплатно в хорошем качестве


    Вы не можете начинать темы
    Вы не можете отвечать на сообщения
    Вы не можете редактировать свои сообщения
    Вы не можете удалять свои сообщения
    Вы не можете голосовать в опросах
    Вы не можете прикреплять файлы к сообщениям
    Вы можете скачивать файлы