Ссылка на приватное зеркало нашего сайта всего за 1$. Внимание количество ограничено!!!

2 сезон

iTunes

1 сезон

1

2 сезон

2 сезон

iTunes

1 сезон

RePack

30

Ultimate

ВАЖНО

ИГРА 18+

pack

RePack

MK11
pack

Забери бонус

RePack

jed

!!Акция!!

Alien_Rage

RePack

fifa19

RePack

Assassins Creed: Odyssey

RePack

NEED FOR SPEED™ PAYBACK

4 сезон

9 сезон

Бесстыжие 9 сезон

Все сериалы

все сериалы на PB.wtf

RePack

FAR CRY 5
  

Нарко / Барыги / Narcos / Сезон: 2 / Серии 1-10 из 10 (Андрес Байс / Andrés Baiz, Джозеф Владыка / Josef Kubota Wladyka, Херардо Наранхо / Gerardo Naranjo) [2016 , США, криминал, драма, WEB-DL 720p] MVO [NewStudio] pb.wtf

Нарко через торрент pb.wtf

Размер: 24.92 GB | Добавлен: 4 года 2 мес. назад | Торрент скачан:485 раз
Скачать  

20-09-2016 01:41 Нарко Скачать торрент  


Нарко / Барыги / Narcos

«There's no business like blow business»


  • Год выпуска: 2016
  • Страна: США
  • Жанр: криминал, драма
  • Продолжительность: 00:52:02 (Серия)
  • Перевод: Профессиональный многоголосый
  • Режиссер: Андрес Байс / Andrés Baiz, Джозеф Владыка / Josef Kubota Wladyka, Херардо Наранхо / Gerardo Naranjo
  • В ролях:

    Вагнер Моура (Pablo Escobar), Бойд Холбрук (Steve Murphy), Педро Паскаль (Javier Peña), Джоанна Кристи (Connie Murphy), Морис Комт (Horacio Carrillo), Диего Катаньо (La Quica), Паулина Гайтан (Tata Escobar), Хуан Мурсия (Juan Pablo Escobar), Паулина Гарсиа (Hermilda Gaviria), Рауль Мендес (César Gaviria), Ричард Т. Джонс (Agent DEA), Хулиан Диас (El Negro)


  • Преступную деятельность будущий влиятельнейший наркобарон Колумбии Пабло Эскобар начал ещё в детстве с воровства и мошенничества, после он перешёл на рэкет, вооружённые налёты и похищение людей. Когда вокруг Пабло сформировалась мощная группировка он решил расширяться в сторону самого перспективного и бездонного рынка - поставки колумбийского кокаина в Соединённые Штаты, где основной проблемой Управления по борьбе с наркотиками до этого момента были лишь добродушные хиппи с их марихуаной. Американские нарки в кратчайшие сроки озолотили юного Пабло и дали ему неограниченную Влacть на родине, где наркобарон, благодаря своим вложениям в местную экономику, стал настоящим героем. Вместе с несколькими влиятельными коллегами Эскобар создаёт Медельинский кокаиновый картель, закупает всевозможную технику для контрабанды своей продукции на север и открывает множество лабораторий по производству белого порошка в безлюдных джунглях. Держа в страхе политиков Колумбии Пабло всегда добивался желаемого любой ценой, предоставляя потенциальным жертвам выбор между получением взятки и пулей в голову.
  • Рейтинг:



  • Качество: WEB-DL 720p
  • Формат: :MKV
  • Видео кодек: AVC
  • Аудио кодек: AC3
  • Видео: 1280x720 (16:9), 6110 kbps, 23,976 fps, 0,277 bpp
  • Аудио №1: русский / 5.1 / 48 kHz / 384 kbps |[NewStudio]|
  • Аудио №2: английский / 5.1 / 48 kHz / 384 kbps
  • Релиз от: GEKADOL

    Код:

    General
    Unique ID                                : 194954670317159702427321999984512358957 (0x92AAE75B415DB98B99D5C7021C165A2D)
    Complete name                            : H:\Narcos.s02.WEB.720p.NewStudio.TV\Narcos.s02e05.WEB.720p.NewStudio.TV.mkv
    Format                                   : Matroska
    Format version                           : Version 4 / Version 2
    File size                                : 2.49 GiB
    Duration                                 : 52 min
    Overall bit rate                         : 6 843 kb/s
    Encoded date                             : UTC 2016-09-19 15:48:46
    Writing application                      : mkvmerge v8.3.0 ('Over the Horizon') 64bit
    Writing library                          : libebml v1.3.1 + libmatroska v1.4.2

    Video
    ID                                       : 1
    Format                                   : AVC
    Format/Info                              : Advanced Video Codec
    Format profile                           : High@L4.1
    Format settings, CABAC                   : Yes
    Format settings, ReFrames                : 9 frames
    Codec ID                                 : V_MPEG4/ISO/AVC
    Duration                                 : 51 min
    Bit rate                                 : 6 110 kb/s
    Width                                    : 1 280 pixels
    Height                                   : 720 pixels
    Display aspect ratio                     : 16:9
    Frame rate mode                          : Constant
    Frame rate                               : 23.976 (24000/1001) FPS
    Color space                              : YUV
    Chroma subsampling                       : 4:2:0
    Bit depth                                : 8 bits
    Scan type                                : Progressive
    Bits/(Pixel*Frame)                       : 0.277
    Stream size                              : 2.21 GiB (89%)
    Writing library                          : x264 core 144 r2525 40bb568
    Encoding settings                        : cabac=1 / ref=9 / deblock=1:-3:-3 / analyse=0x3:0x133 / me=umh / subme=10 / psy=1 / psy_rd=1.00:0.00 / mixed_ref=1 / me_range=48 / chroma_me=1 / trellis=2 / 8x8dct=1 / cqm=0 / deadzone=21,11 / fast_pskip=1 / chroma_qp_offset=-2 / threads=6 / lookahead_threads=1 / sliced_threads=0 / nr=0 / decimate=1 / interlaced=0 / bluray_compat=0 / constrained_intra=0 / bframes=8 / b_pyramid=2 / b_adapt=2 / b_bias=0 / direct=3 / weightb=1 / open_gop=0 / weightp=2 / keyint=250 / keyint_min=23 / scenecut=40 / intra_refresh=0 / rc=crf / mbtree=0 / crf=17.5 / qcomp=0.60 / qpmin=0 / qpmax=69 / qpstep=4 / ip_ratio=1.30 / pb_ratio=1.20 / aq=3:0.80
    Language                                 : English
    Default                                  : Yes
    Forced                                   : No

    Audio #1
    ID                                       : 2
    Format                                   : AC-3
    Format/Info                              : Audio Coding 3
    Mode extension                           : CM (complete main)
    Format settings, Endianness              : Big
    Codec ID                                 : A_AC3
    Duration                                 : 52 min
    Bit rate mode                            : Constant
    Bit rate                                 : 384 kb/s
    Channel(s)                               : 6 channels
    Channel positions                        : Front: L C R, Side: L R, LFE
    Sampling rate                            : 48.0 kHz
    Frame rate                               : 31.250 FPS (1536 spf)
    Compression mode                         : Lossy
    Stream size                              : 143 MiB (6%)
    Title                                    : NewStudio.TV
    Language                                 : Russian
    Default                                  : Yes
    Forced                                   : No

    Audio #2
    ID                                       : 3
    Format                                   : AC-3
    Format/Info                              : Audio Coding 3
    Mode extension                           : CM (complete main)
    Format settings, Endianness              : Big
    Codec ID                                 : A_AC3
    Duration                                 : 52 min
    Bit rate mode                            : Constant
    Bit rate                                 : 384 kb/s
    Channel(s)                               : 6 channels
    Channel positions                        : Front: L C R, Side: L R, LFE
    Sampling rate                            : 48.0 kHz
    Frame rate                               : 31.250 FPS (1536 spf)
    Compression mode                         : Lossy
    Stream size                              : 143 MiB (6%)
    Language                                 : English
    Default                                  : No
    Forced                                   : No






    Внимание! В сериале присутствуют сцены сексуального характера и ненормативная лексика!

    Скриншоты:



    pb.wtf



  • Скачать Нарко через торрент http://pic1.kartinco.top/images/10/vci4q.jpg Скачать фильм Нарко через торрент бесплантно в хорошем качестве qw.png Преступную деятельность будущий влиятельнейший наркобарон Колумбии Пабло Эскобар начал ещё в детстве с воровства и мошенничества, ... 9.9 10 18
    Info! Золотая раздача, скачанное не засчитывается.
    Торрент: Зарегистрирован [2016-09-20 01:41] · скачан: 485 раз
    Статус: √ проверено
    Размер: 24.92 GB
    Как cкачать? Как скачать Нарко через торрент | qTorrent

    % Раздел Тема Автор DL S | L
    Зарубежные сериалы [ 6.84 GB ] Нарки / Нарко / Барыги / Narcos / Сезон: 2 1-10 серии из 10 [2016 WEBRip ] MVO [NewStudio] bober100 Скачать
    1 | 0
    Зарубежные сериалы [ 6.19 GB ] Нарко / Барыги / Narcos / Сезон: 2 / Серии 1-10 из 10 [2015 WEBRip] MVO [ColdFilm] GEKADOL Скачать
    1 | 0

    28-11-2019 20:33  

    Отключить всю рекламу на сайте

    20-09-2016 01:42 Нарко Скачать торрент  

    На такое и 5000 не жалко pb.wtf



    20-09-2016 03:33 Нарко Скачать торрент  

    наконец-то дождались.будем посмотреть.спс.pb.wtf



    20-09-2016 07:59 Нарко Скачать торрент  

    Сабы англ. неотключаемые?pb.wtf



    20-09-2016 13:11 Нарко Скачать торрент  

    el_papa писал(а):

    Сабы англ. неотключаемые?

    Нет.pb.wtf



    20-09-2016 13:23 Нарко Скачать торрент  

    nebel555 писал(а):

    наконец-то дождались.будем посмотреть.спс.

    Сам опупел ждать) Смотрим) Вам спасибо за спасибо!!! pb.wtf



    21-09-2016 12:59 Нарко Скачать торрент  

    спасибо большое ждал очень.Вот это я понимаю отличное начало осени.pb.wtf



    28-09-2016 17:50 Нарко Скачать торрент  

    народ подскажите будет ли продолжение?pb.wtf



    01-10-2016 00:17 Нарко Скачать торрент  

    Русские субтитры есть?pb.wtf



    04-10-2016 13:24 Нарко Скачать торрент  

    =ZMEY= писал(а):

    народ подскажите будет ли продолжение?

    Похоже будет)pb.wtf



    15-08-2020 15:52 Нарко Скачать торрент  

    Дайте раздачу=)pb.wtf



      Дорогой пользователь! Огромная просьба, поблагодарите релизера, оцените раздачу и оставьте свои комментарий, если Вы скачали Нарко через торрент бесплатно! Внесите свою лепту в развитие PiratBit!
      Комментировать посты могут только пользователи прошедшие не сложную регистрацию
      Показать сообщения:    

      Нарко через торрент
      Скачать бесплатно Нарко
      Нарко скачать торрент
      Нарко смотреть онлайн
      Cкачать фильм Нарко бесплатно
      Нарко скачать торрент в хорошем качестве
      Нарко смотреть онлайн бесплатно в хорошем качестве


      Вы не можете начинать темы
      Вы не можете отвечать на сообщения
      Вы не можете редактировать свои сообщения
      Вы не можете удалять свои сообщения
      Вы не можете голосовать в опросах
      Вы не можете прикреплять файлы к сообщениям
      Вы можете скачивать файлы