Ссылка на приватное зеркало всего за 1$. Внимание количество ограничено!!!

iTunes

iTunes

iTunes

1

iTunes

iTunes

iTunes

iTunes

iTunes

30
pack

$ от Little Big

ВАЖНО

!!Акция!!

Alien_RageХит недели

RePack

Resident Evil 21

ИГРА 18+

pack

RePack

jed

!!Акция!!

Alien_Rage

RePack

fifa19

RePack

Assassins Creed: Odyssey

RePack

NEED FOR SPEED™ PAYBACK

4 сезон

9 сезон

Бесстыжие 9 сезон

Все сериалы

все сериалы на PB.wtf

RePack

FAR CRY 5
  

Сладкое прощание Веры (Александра Бутор) [2015, драма, WEBRip] pb.wtf

Сладкое прощание Веры через торрент pb.wtf

Размер: 1.45 GB | Добавлен: 3 года 8 мес. назад | Торрент скачан:83 раза
Скачать  

20-09-2016 05:29 Сладкое прощание Веры Скачать торрент  

Сладкое прощание Веры

Год выпуска: 2015
Страна: Беларусь
Жанр: драма
Продолжительность: 01:39:03
Перевод: Отсутствует [Оригинал]
Режиссер: Александра Бутор
В ролях: Нелли Савиченко (Вера), Павел Харланчук, Юозас Будрайтис (капитан авиалайнера), Сергей Журавель, Анна Полупанова, Татьяна Бовкалова, Алёна Сидорова, Виктор Манаев, Елена Побегаева
Описание:
Бывшая стюардесса Вера всю жизнь ждала свою единственную любовь - капитана авиалайнера, который так и не решился ради нее бросить свою семью. На склоне лет она остается без работы, родных, друзей, с мучительными воспоминаниями. Опасаясь внезапной смерти, зная, что о ней никто не сможет позаботиться, Вера решает заранее организовать собственные похороны и приглашает к себе агента из бюро ритуальных услуг. Им оказывается романтичный парень. Между героями вспыхивает любовь, в которой они не смеют признаться даже себе. Время, проведенное рядом с этим человеком, становится для Веры самым сладким в жизни...

Качество: WEBRip
Формат: AVI
Видео: xvid, 720x288 (2.500), 1831 kbps, 25 fps, 0,353 bpp
Аудио: MP3 / 2.0 / 44 kHz / 256 kbps /

General
Complete name Sladoe prozhanie Veri (2014) WEBRip.avi
Format : AVI
Format/Info : Audio Video Interleave
Format profile : OpenDML
File size : 1.45 GiB
Duration : 1 h 39 min
Overall bit rate : 2 101 kb/s
Writing application : XviD4PSP 6.0 / 54.29.105

Video
ID : 0
Format : xvid
Codec ID : xvid
Duration : 1 h 39 min
Bit rate : 1 832 kb/s
Width : 720 pixels
Height : 288 pixels
Display aspect ratio : 2.500
Frame rate : 25.000 FPS
Scan type : Progressive
Bits/(Pixel*Frame) : 0.353
Stream size : 1.27 GiB (87%)

Audio
ID : 1
Format : MPEG Audio
Format version : Version 1
Format profile : Layer 3
Codec ID : 55
Codec ID/Hint : MP3
Duration : 1 h 39 min
Bit rate mode : Constant
Bit rate : 256 kb/s
Channel(s) : 2 channels
Sampling rate : 44.1 kHz
Compression mode : Lossy
Stream size : 181 MiB (12%)
Alignment : Aligned on interleaves
Interleave, duration : 26 ms (0.65 video frame)
Writing library : LAMELAME_MAJOR_VERSI
Скриншоты:
pb.wtf



Скачать Сладкое прощание Веры через торрент http://i3.imageban.ru/out/2016/09/20/b645fd486d04156b4a9bea997e425d38.jpg Скачать фильм Сладкое прощание Веры через торрент бесплантно в хорошем качестве Описание: Бывшая стюардесса Вера всю жизнь ждала свою единственную любовь - капитана авиалайнера, который так и не решился ради нее бросить ... 8.5 10 6
Торрент: Зарегистрирован [2016-09-20 05:29] · скачан: 83 раз
Статус: T временная
Размер: 1.45 GB
Как cкачать? Как скачать Сладкое прощание Веры через торрент | qTorrent

28-11-2019 20:33  

Отключить всю рекламу на сайте

21-09-2016 19:05 Сладкое прощание Веры Скачать торрент  

Как смотреть можно?pb.wtf



    Дорогой пользователь! Огромная просьба, поблагодарите релизера, оцените раздачу и оставьте свои комментарий, если Вы скачали Сладкое прощание Веры через торрент бесплатно! Внесите свою лепту в развитие PiratBit!
    Комментировать посты могут только пользователи прошедшие не сложную регистрацию
    Показать сообщения:    

    Сладкое прощание Веры через торрент
    Скачать бесплатно Сладкое прощание Веры
    Сладкое прощание Веры скачать торрент
    Сладкое прощание Веры смотреть онлайн
    Cкачать фильм Сладкое прощание Веры бесплатно
    Сладкое прощание Веры скачать торрент в хорошем качестве
    Сладкое прощание Веры смотреть онлайн бесплатно в хорошем качестве


    Вы не можете начинать темы
    Вы не можете отвечать на сообщения
    Вы не можете редактировать свои сообщения
    Вы не можете удалять свои сообщения
    Вы не можете голосовать в опросах
    Вы не можете прикреплять файлы к сообщениям
    Вы можете скачивать файлы