2 сезон

iTunes

MVO

1

2 сезон

iTunes

iTunes

1 сезон

RePack

30

Новинка

ВАЖНО

ИГРА 18+

pack

RePack

MK11
pack

Легкие деньги

RePack

jed

RePack

fifa19

RePack

RDR2

RePack

NEED FOR SPEED™ PAYBACK

4 сезон

9 сезон

Бесстыжие 9 сезон

Все сериалы

все сериалы на PB.wtf

RePack

FAR CRY 5

Anonymous, добрый день, мы не успеваем собрать деньги на оплату серверов за декабрь и январь, помогите нам пожалуйста в это трудное время. В качестве благодарности мы отключим Вам всю рекламу на сайте (укажите свой ник в строку Ваше имя)!

×
  
Magnet ссылка

Атомная школа- Возвращение. Часть 1 / Return to Nuke- 'Em High Volume 1 (Ллойд Кауфман) [2013 г., Ужасы, Фантастика, Комедии, DVDRip, Любительский (одноголосый)(Мегапыхарь и Ох!Студия)[озвучивал ХихиДок]] pb.wtf

Атомная школа- Возвращение. Часть 1 через торрент pb.wtf

Размер: 1.34 GB | Добавлен: 4 года 4 мес. назад | Торрент скачан:298 раз
Скачать  

20-09-2016 13:19 Атомная школа- Возвращение. Часть 1 Скачать торрент  

Атомная школа- Возвращение. Часть 1 / Return to Nuke- 'Em High Volume 1

Год выпуска: 2013
Страна: США
Жанр: Ужасы, Фантастика, Комедии +17
Продолжительность: 85 мин. / 01:25
Перевод: Любительский (одноголосый)
(Мегапыхарь и Ох!Студия)[озвучивал ХихиДок]

Режиссер: Ллойд Кауфман

В ролях: Asta Paredes, Catherine Corcoran, Vito Trigo, Clay von Carlowitz,
Zach Amico, Mike Baez, Tara E. Miller, Lemmy, Michael S. Schmal, Jess Mills

Описание: Mutation school thugs that took place, as usual, by chance, only added hassle
of the two botanists Chrissy and Lauren, who are now forced to fight for the salvation
of his native school, city Tromavil and around the world, not only with monsters, mutants,
and now the production of life-threatening foods.

(Присутствует,жесткая не нормативная лексика)) (Рекламы нет))


Качество: DVDRip
Формат: AVI
Видео кодек: XviD
Аудио кодек: MP3
Видео: (XviD) 720x400,(16/9) v 23.976,fps 1982 Kbps
Аудио#1: (MP3) 44.1Hz, 2 канала, 256 Kbps




Общее
Полное имя : D:\релиз кино\Return.to.Nuke.Em.High.Volume.1.2013.UNRATED. Xixidok.avi
Формат : AVI
Формат/Информация : Audio Video Interleave
Размер файла : 1,34 Гбайт
Продолжительность : 1 ч. 25 м.
Общий поток : 2248 Кбит/сек
Программа кодирования : VirtualDubMod 1.5.10.3 (build 2550/release)
Библиотека кодирования : VirtualDubMod build 2550/release

Видео
Идентификатор : 0
Формат : MPEG-4 Visual
Профиль формата : Simple@L3
Параметр BVOP формата : Нет
Параметр QPel формата : Нет
Параметр GMC формата : Без точки перехода
Параметр матрицы формата : Default (H.263)
Идентификатор кодека : XVID
Идентификатор кодека/Подсказка : XviD
Продолжительность : 1 ч. 25 м.
Битрейт : 1982 Кбит/сек
Ширина : 720 пикселей
Высота : 400 пикселей
Соотношение сторон : 16:9
Частота кадров : 23,976 (24000/1001) кадра/сек
Цветовое пространство : YUV
Субдискретизация насыщенности : 4:2:0
Битовая глубина : 8 бит
Тип развёртки : Прогрессивная
Метод сжатия : С потерями
Бит/(Пиксели*Кадры) : 0.287
Размер потока : 1,18 Гбайт (88%)
Библиотека кодирования : XviD 64

Аудио
Идентификатор : 1
Формат : MPEG Audio
Версия формата : Version 1
Профиль формата : Layer 3
Идентификатор кодека : 55
Идентификатор кодека/Подсказка : MP3
Продолжительность : 1 ч. 25 м.
Вид битрейта : Постоянный
Битрейт : 256 Кбит/сек
Каналы : 2 канала
Частота : 44,1 КГц
Метод сжатия : С потерями
Задержка видео : 22 мс.
Размер потока : 156 Мбайт (11%)
Выравнивание : Разделение по промежуткам
Продолжительность промежутка : 42 мс. (1,00 видеокадр)
Время предзагрузки промежутка : 500 мс.
скриншот   скриншот   скриншот   скриншот   скриншот   скриншот   скриншот   скриншот   скриншот   скриншот   скриншот   скриншот  
pb.wtf



Скачать Атомная школа- Возвращение. Часть 1 через торрент https://pic1.kartinco.top/images/10/azwpl.jpg Скачать фильм Атомная школа- Возвращение. Часть 1 через торрент бесплантно в хорошем качестве Описание: Mutation school thugs that took place, as usual, by chance, only added hassleof the two botanists Chrissy and Lauren, who are now ... 9.3 10 12
Info! Золотая раздача, скачанное не засчитывается.
Торрент: Зарегистрирован [2016-09-20 13:19] · скачан: 298 раз
Статус: √ проверено
Размер: 1.34 GB
Как cкачать? Как скачать Атомная школа- Возвращение. Часть 1 через торрент | UTorrent



Последний раз редактировалось: DJASFUL (2016-09-20 16:30), всего редактировалось 3 раз(а)

28-11-2019 20:33  

Отключить всю рекламу на сайте

20-09-2016 14:16 Атомная школа- Возвращение. Часть 1 Скачать торрент  

ХихиДок некогда не меняется)pb.wtf



20-09-2016 15:07 Атомная школа- Возвращение. Часть 1 Скачать торрент  

Хвалит народ кино.Бум качать.pb.wtf



20-09-2016 16:57 Атомная школа- Возвращение. Часть 1 Скачать торрент  

Благодарю всех за монеты ! pb.wtf



20-09-2016 17:11 Атомная школа- Возвращение. Часть 1 Скачать торрент  

Рад, что и другие пользователи не обходят трому стороной)))pb.wtf



23-09-2016 16:16 Атомная школа- Возвращение. Часть 1 Скачать торрент  

Фильм для людей с размягчённым мозгом.И снимал его явный неадекват.pb.wtf



    Дорогой пользователь! Огромная просьба, поблагодарите релизера, оцените раздачу и оставьте свои комментарий, если Вы скачали Атомная школа- Возвращение. Часть 1 через торрент бесплатно! Внесите свою лепту в развитие PiratBit!
    Комментировать посты могут только пользователи прошедшие не сложную регистрацию
    Показать сообщения:    

    Атомная школа- Возвращение. Часть 1 через торрент
    Скачать бесплатно Атомная школа- Возвращение. Часть 1
    Атомная школа- Возвращение. Часть 1 скачать торрент
    Атомная школа- Возвращение. Часть 1 смотреть онлайн
    Cкачать фильм Атомная школа- Возвращение. Часть 1 бесплатно
    Атомная школа- Возвращение. Часть 1 скачать торрент в хорошем качестве
    Атомная школа- Возвращение. Часть 1 смотреть онлайн бесплатно в хорошем качестве


    Вы не можете начинать темы
    Вы не можете отвечать на сообщения
    Вы не можете редактировать свои сообщения
    Вы не можете удалять свои сообщения
    Вы не можете голосовать в опросах
    Вы не можете прикреплять файлы к сообщениям
    Вы можете скачивать файлы