Ссылка на приватное зеркало нашего сайта всего за 1$. Внимание количество ограничено!!!

2 сезон

iTunes

1 сезон

1

2 сезон

2 сезон

iTunes

1 сезон

RePack

30

Новинка

ВАЖНО

ИГРА 18+

pack

RePack

MK11
pack

Забери бонус

RePack

jed

!!Акция!!

Alien_Rage

RePack

fifa19

RePack

Assassins Creed: Odyssey

RePack

NEED FOR SPEED™ PAYBACK

4 сезон

9 сезон

Бесстыжие 9 сезон

Все сериалы

все сериалы на PB.wtf

RePack

FAR CRY 5
  

Спартак: Кровь и песок / Spartacus: Blood and Sand / Сезон: 1 / Серии 1-13 из 13 (Джесси Уарн, Майкл Херст, Рик Джейкобсон) [2010 г., боевик, драма, приключения, HDTVRip, Профессиональный многоголосый LostFilm] pb.wtf

Спартак: Кровь и песок через торрент pb.wtf

Раздают: 1 [ 0 KB/s ]
Размер: 5.33 GB | Добавлен: 4 года 2 мес. назад | Торрент скачан:342 раза
Скачать  

20-09-2016 19:04 Спартак: Кровь и песок Скачать торрент  

Спартак: Кровь и песок / Spartacus: Blood and Sand
«Некоторые легенды написаны кровью»

Год выпуска: 2010
Страна: США
Жанр: боевик, драма, приключения
Продолжительность: 0:52
Перевод: Профессиональный многоголосый LostFilm

Режиссер: Джесси Уарн, Майкл Херст, Рик Джейкобсон

Премьера в мире: 22 января 2010

В ролях: Ману Беннетт, Дэниел Фьюрригал, Джон Ханна, Дастин Клер, Люси Лоулесс, Лиам МакИнтайр, Ник Е. Тарабэй, Энди Уитфилд, Питер Менса, Вива Бьянка

Описание: Легенда о фракийском воине Спартаке, попавшем в рабство к римлянам, ставшим гладиатором и возглавившим одно из самых массовых восстаний рабов в Древнем Риме - известна всем ещё со школьной скамьи. Создатели сериала дают нам возможность вновь окунуться в атмосферу античности и помогают древней легенде буквально заиграть новыми красками, с применением новейших технологий кинематографии.
* Сериал содержит сцены насилия и сексуального характера, не рекомендуется к просмотру лицам до 18 лет!
По завершении первого сезона производство сериала было приостановлено в связи с неожиданной диагностикой рака у Энди Уитфилда, исполняющего роль Спартака. Продюсеры собирались ждать выздоровления актера и не приступать до тех пор к съемкам второго сезона, но когда болезнь начала прогрессировать, и Уитфилд окончательно покинул сериал, был проведен рекастинг, и на главную роль выбрали Лиама Макинтайера. Энди Уитфилд скончался в сентябре 2011 года.




Качество: HDTVRip
Формат: AVI
Видео кодек: MPEG4
Аудио кодек: MP3
Видео: 624x352, 1080 kbps, 23,976 fps, 0,205 bpp
Аудио#1: Русский, 192 Кбит/сек, 48,0 КГц, 2 канала, MPEG Audio (MP3)

скриншот   скриншот   скриншот   скриншот  

Формат : AVI
Формат/Информация : Audio Video Interleave
Размер файла : 428 Мбайт
Продолжительность : 54 м. 40 с.
Общий поток : 1095 Кбит/сек
Программа кодирования : Nandub v1.0rc2
Библиотека кодирования : Nandub build 1852/release

Видео
Идентификатор : 0
Формат : MPEG-4 Visual
Профиль формата : Advanced Simple@L5
Параметр BVOP формата : 1
Параметр QPel формата : Нет
Параметр GMC формата : Без точки перехода
Параметр матрицы формата : Выборочная
Идентификатор кодека : XVID
Идентификатор кодека/Подсказка : XviD
Продолжительность : 54 м. 40 с.
Битрейт : 890 Кбит/сек
Ширина : 624 пикселя
Высота : 352 пикселя
Соотношение сторон : 16:9
Частота кадров : 23,976 (23976/1000) кадра/сек
Цветовое пространство : YUV
Субдискретизация насыщенности : 4:2:0
Битовая глубина : 8 бит
Тип развёртки : Прогрессивная
Метод сжатия : С потерями
Бит/(Пиксели*Кадры) : 0.169
Размер потока : 348 Мбайт (81%)
Библиотека кодирования : XviD 1.2.1 (UTC 2008-12-04)

Аудио
Идентификатор : 1
Формат : MPEG Audio
Версия формата : Version 1
Профиль формата : Layer 3
Режим : Joint stereo
Идентификатор кодека : 55
Идентификатор кодека/Подсказка : MP3
Продолжительность : 54 м. 40 с.
Вид битрейта : Постоянный
Битрейт : 192 Кбит/сек
Каналы : 2 канала
Частота : 48,0 КГц
Метод сжатия : С потерями
Размер потока : 75,1 Мбайт (18%)
Выравнивание : Соединение по промежуткам
Продолжительность промежутка : 24 мс. (0,58 видеокадр)
Время предзагрузки промежутка : 480 мс.


скриншот  pb.wtf



Скачать Спартак: Кровь и песок через торрент http://pic1.kartinco.top/images/10/37bq3.jpg Скачать фильм Спартак: Кровь и песок через торрент бесплантно в хорошем качестве Описание: Легенда о фракийском воине Спартаке, попавшем в рабство к римлянам, ставшим гладиатором и возглавившим одно из самых массовых ... 9.9 10 14
Info! Золотая раздача, скачанное не засчитывается.
Торрент: Зарегистрирован [2016-09-20 19:04] · скачан: 342 раз
Статус: √ проверено
Размер: 5.33 GB
Как cкачать? Как скачать Спартак: Кровь и песок через торрент | qTorrent

% Раздел Тема Автор DL S | L
Зарубежные сериалы [ 25.2 GB ] Спартак: Кровь и песок / Spartacus: Blood and Sand / Сезон: 1 / Серии: 1-13 из 13 [2010 BDRip 720p] MVO [TVShows] bober100 Скачать
1 | 0
Зарубежные сериалы [ 47.42 GB ] Спартак: Кровь и песок / Spartacus: Blood and Sand / Сезон: 1 / Серии: 1-13 из 13 [2010 BDRip 1080p] MVO [TVShows] bober100 Скачать
1 | 0
Зарубежные сериалы [ 32.77 GB ] Спартак: Кровь и Песок / Spartacus: Blood and Sand / сезон 1 [2010 биография история BDRip 720p] diletant Скачать
1 | 0

28-11-2019 20:33  

Отключить всю рекламу на сайте

20-09-2016 21:31 Спартак: Кровь и песок Скачать торрент  

Отличный сериалpb.wtf



18-10-2017 17:58 Спартак: Кровь и песок Скачать торрент  

А скорости нетpb.wtf



    Дорогой пользователь! Огромная просьба, поблагодарите релизера, оцените раздачу и оставьте свои комментарий, если Вы скачали Спартак: Кровь и песок через торрент бесплатно! Внесите свою лепту в развитие PiratBit!
    Комментировать посты могут только пользователи прошедшие не сложную регистрацию
    Показать сообщения:    

    Спартак: Кровь и песок через торрент
    Скачать бесплатно Спартак: Кровь и песок
    Спартак: Кровь и песок скачать торрент
    Спартак: Кровь и песок смотреть онлайн
    Cкачать фильм Спартак: Кровь и песок бесплатно
    Спартак: Кровь и песок скачать торрент в хорошем качестве
    Спартак: Кровь и песок смотреть онлайн бесплатно в хорошем качестве


    Вы не можете начинать темы
    Вы не можете отвечать на сообщения
    Вы не можете редактировать свои сообщения
    Вы не можете удалять свои сообщения
    Вы не можете голосовать в опросах
    Вы не можете прикреплять файлы к сообщениям
    Вы можете скачивать файлы