Ссылка на приватное зеркало всего за 1$. Внимание количество ограничено!!!

OK

1+1

iTunes

мы

OK

1

WEB-DLRip

Джокер

Пифагор

Ведьмак / The Witcher сериал

Лицензия

ПШазам

ОК

Оно 2

iTunes

30
pack

Вам бонус

ВАЖНО

!!Акция!!

Alien_RageХит недели

RePack

Resident Evil 21

ИГРА 18+

pack

RePack

jed

!!Акция!!

Alien_Rage

RePack

fifa19

RePack

Assassins Creed: Odyssey

RePack

NEED FOR SPEED™ PAYBACK

4 сезон

9 сезон

Бесстыжие 9 сезон

Все сериалы

все сериалы на PB.wtf

RePack

FAR CRY 5
  

Алиса в Зазеркалье / Alice Through the Looking Glass (Джеймс Бобин) [2016, фэнтези, приключения, семейный, WEB-DL 720р] Dub [iTunes] pb.wtf

Алиса в Зазеркалье через торрент pb.wtf

Размер: 3.77 GB | Добавлен: 3 года 4 мес. назад | Торрент скачан:557 раз
Скачать  

20-09-2016 20:15 Алиса в Зазеркалье Скачать торрент  

Алиса в Зазеркалье / Alice Through the Looking Glass«Весна - самое время сойти с ума»

Год выпуска » 2016
Страна » США, Великобритания
Жанр » фэнтези, приключения, семейный
Продолжительность » 01:53:19
Перевод » Профессиональный (полное дублирование) [iTunes]
Субтитры » Отсутствуют
В ролях
» Миа Васиковска, Джонни Депп, Хелена Бонем Картер, Энн Хэтэуэй, Саша Барон Коэн, Рис Иванс, Мэтт Лукас, Линдси Дункан, Лео Билл, Джеральдин Джеймс

Режиссёр
» Джеймс Бобин

» На этот раз главной героине предстоит отправиться в путешествие во времени, полное неожиданностей и ярких открытий, чтобы спасти своего друга, Безумного Шляпника.

• Качество » WEB-DL (720p)
• Формат » MKV
• Видео кодек » AVC
• Аудио кодек » AC3
• Видео »MPEG-4 AVC, 3993 Кбит/с, 1280x692 , 23.976 кадр/с
• Аудио » Английский (AC-3 / 6 ch / 384 kbps / 48,0 КГц / 16 bit)
• Аудио » Русский (AC-3 / 6 ch / 384 kbps / 48,0 КГц / 16 bit )



Бюджет: $170 000 000
Сборы в США: $77 041 381
Сборы в мире: + $219 817 184 = $296 858 565
Сборы в России: $10 340 316
Дата мировой премьеры: 10 мая 2016
Дата российской премьеры: 26 мая 2016, «WDSSPR»

Код:

Общее
Уникальный идентификатор                 : 232429799721191716291376840371568664578 (0xAEDC59E35598E7AB94C0D728798C6002)
Полное имя                               : F:\Alice.2O16.D.WEB-DL.72Op.mkv
Формат                                   : Matroska
Версия формата                           : Version 2
Размер файла                             : 3,77 Гбайт
Продолжительность                        : 1 ч. 53 м.
Общий поток                              : 4762 Кбит/сек
Дата кодирования                         : UTC 2016-09-19 18:05:55
Программа кодирования                    : mkvmerge v8.3.0 ('Over the Horizon') 64bit
Библиотека кодирования                   : libebml v1.3.1 + libmatroska v1.4.2
DURATION                                 : 01:53:11.104000000
NUMBER_OF_FRAMES                         : 212222
NUMBER_OF_BYTES                          : 325972992
_STATISTICS_WRITING_APP                  : mkvmerge v8.3.0 ('Over the Horizon') 64bit
_STATISTICS_WRITING_DATE_UTC             : 2016-09-19 18:05:55
_STATISTICS_TAGS                         : BPS DURATION NUMBER_OF_FRAMES NUMBER_OF_BYTES

Видео
Идентификатор                            : 1
Формат                                   : AVC
Формат/Информация                        : Advanced Video Codec
Профиль формата                          : High@L3.1
Параметр CABAC формата                   : Нет
Параметр ReFrames формата                : 2 кадра
Идентификатор кодека                     : V_MPEG4/ISO/AVC
Продолжительность                        : 1 ч. 53 м.
Битрейт                                  : 3899 Кбит/сек
Ширина                                   : 1280 пикселей
Высота                                   : 692 пикселя
Соотношение сторон                       : 1,85:1
Режим частоты кадров                     : Постоянный
Частота кадров                           : 23,976 кадра/сек
Цветовое пространство                    : YUV
Субдискретизация насыщенности            : 4:2:0
Битовая глубина                          : 8 бит
Тип развёртки                            : Прогрессивная
Бит/(Пиксели*Кадры)                      : 0.184
Размер потока                            : 3,09 Гбайт (82%)
Язык                                     : English
Default                                  : Да
Forced                                   : Нет
Основные цвета                           : BT.709
Характеристики трансфера                 : BT.709
Коэффициенты матрицы                     : BT.709

Аудио #1
Идентификатор                            : 2
Формат                                   : AC-3
Формат/Информация                        : Audio Coding 3
Расширение режима                        : CM (complete main)
Параметр Endianness формата              : Big
Идентификатор кодека                     : A_AC3
Продолжительность                        : 1 ч. 53 м.
Вид битрейта                             : Постоянный
Битрейт                                  : 384 Кбит/сек
Каналы                                   : 6 каналов
Расположение каналов                     : Front: L C R, Side: L R, LFE
Частота                                  : 48,0 КГц
Битовая глубина                          : 16 бит
Метод сжатия                             : С потерями
Размер потока                            : 311 Мбайт (8%)
Язык                                     : English
Default                                  : Нет
Forced                                   : Нет

Аудио #2
Идентификатор                            : 3
Формат                                   : AC-3
Формат/Информация                        : Audio Coding 3
Расширение режима                        : CM (complete main)
Параметр Endianness формата              : Big
Идентификатор кодека                     : A_AC3
Продолжительность                        : 1 ч. 53 м.
Вид битрейта                             : Постоянный
Битрейт                                  : 384 Кбит/сек
Каналы                                   : 6 каналов
Расположение каналов                     : Front: L C R, Side: L R, LFE
Частота                                  : 48,0 КГц
Битовая глубина                          : 16 бит
Метод сжатия                             : С потерями
Размер потока                            : 311 Мбайт (8%)
Default                                  : Да
Forced                                   : Нет

Меню
00:00:00.000                             : en:Navigating The Wonder
00:04:32.000                             : en:Return Home
00:07:24.000                             : en:Canceled Plans
00:12:07.000                             : en:Through The Looking Glass
00:16:39.000                             : en:Old Friends
00:22:47.000                             : en:Chronosphere
00:24:59.000                             : en:Time's Castle
00:30:17.000                             : en:The Grand Clock
00:35:30.000                             : en:Arrival Of The Red Queen
00:41:32.000                             : en:Ocean Of Time
00:45:20.000                             : en:Coronation
00:51:35.000                             : en:Warning The Hatter
00:54:11.000                             : en:Tea Party With Time
00:57:40.000                             : en:Tart Trouble
01:04:18.000                             : en:"The Stroke Of Six"
01:09:18.000                             : en:Escape From The Asylum
01:12:45.000                             : en:Horunvendush Day
01:18:07.000                             : en:Red Queen's Lair
01:23:20.000                             : en:Changing The Past
01:27:34.000                             : en:Running Out Of Time
01:32:16.000                             : en:Family Reunion
01:36:40.000                             : en:Goodbyes
01:40:13.000                             : en:Setting Sail
01:43:14.000                             : en:End Credits

скриншот  скриншот  скриншот  скриншот  
pb.wtf



Скачать Алиса в Зазеркалье через торрент http://i74.fastpic.ru/big/2015/1218/b5/c39d072d168dbcde95d1a17f670689b5.gif Скачать фильм Алиса в Зазеркалье через торрент бесплантно в хорошем качестве В ролях » Миа Васиковска, Джонни Депп, Хелена Бонем Картер, Энн Хэтэуэй, Саша Барон Коэн, Рис Иванс, Мэтт Лукас, Линдси Дункан, Лео Билл, ... 9.3 10 18
Info! Золотая раздача, скачанное не засчитывается.
Торрент: Зарегистрирован [2016-09-20 20:15] · скачан: 557 раз
Статус: √ проверено
Размер: 3.77 GB
Как cкачать? Как скачать Алиса в Зазеркалье через торрент | qTorrent

% Раздел Тема Автор DL S | L
Фильмы 2016 [DVDrip, WEB-DLRip, HDrip] (DUB, MVO) [ 1.97 GB ] Алиса в Зазеркалье / Alice Through the Looking Glass [2016 WEB-DLRip-AVC] Dub $-DRON-$ Скачать
3 | 0
Фильмы 2016 [DVDrip, WEB-DLRip, HDrip] (DUB, MVO) [ 2.18 GB ] Алиса в Зазеркалье / Alice Through the Looking Glass [2016 BDRip] - [] Twi7ter Скачать
2 | 0
Фильмы (Blu-ray, BD-Remux, HDDVD) [ 27.86 GB ] Алиса в Зазеркалье / Alice Through the Looking Glass [2016 эранизация BDRemux 1080p] от ExKinoRay / Russian Mafia Скачать
1 | 0
R.G. Resident & PiratVoice - Фильмы, Видео [ 8.67 GB ] Алиса в Зазеркалье / Alice Through the Looking Glass [2016 BDRip 720p - ] R.G.Resident schultz Скачать
1 | 0
Фильмы (HD 720p, 1080p) (48-60 fps) [ 6.66 GB ] Алиса в Зазеркалье / Alice Through the Looking Glass [2016 BDRip 720p 60 fps от еnvy / NNNB] DUB / еnvy Скачать
4 | 1
3D Фильмы [ 16.26 GB ] Алиса в Зазеркалье в 3D / Alice Through the Looking Glass 3D [2016 3D BDRip 1080p] / Half OverUnder sheker187 Скачать
1 | 0
3D Фильмы [ 20.2 GB ] Алиса в Зазеркалье в 3Д / Alice Through the Looking Glass 3D [2016 BDrip 1080p] DUB / OverUnder / Вертикальная стереопара serega768 Скачать
1 | 0

28-11-2019 20:33  

Отключить всю рекламу на сайте

21-09-2016 19:51 Алиса в Зазеркалье Скачать торрент  

смотреть можноpb.wtf



28-09-2016 12:39 Алиса в Зазеркалье Скачать торрент  

хороший фильмpb.wtf



    Дорогой пользователь! Огромная просьба, поблагодарите релизера, оцените раздачу и оставьте свои комментарий, если Вы скачали Алиса в Зазеркалье через торрент бесплатно! Внесите свою лепту в развитие PiratBit!
    Комментировать посты могут только пользователи прошедшие не сложную регистрацию
    Показать сообщения:    

    Алиса в Зазеркалье через торрент
    Скачать бесплатно Алиса в Зазеркалье
    Алиса в Зазеркалье скачать торрент
    Алиса в Зазеркалье смотреть онлайн
    Cкачать фильм Алиса в Зазеркалье бесплатно
    Алиса в Зазеркалье скачать торрент в хорошем качестве
    Алиса в Зазеркалье смотреть онлайн бесплатно в хорошем качестве


    Вы не можете начинать темы
    Вы не можете отвечать на сообщения
    Вы не можете редактировать свои сообщения
    Вы не можете удалять свои сообщения
    Вы не можете голосовать в опросах
    Вы не можете прикреплять файлы к сообщениям
    Вы можете скачивать файлы