1 сезон

3 сезон

iTunes

1

iTunes

MVO

iTunes

13

1 сезон

RePack

30

Deluxe

pack

Лицензия

ВАЖНО

ИГРА 18+

pack

RePack

MK11

RePack

jed

RePack

fifa19

RePack

RDR2

RePack

NEED FOR SPEED™ PAYBACK

4 сезон

9 сезон

Бесстыжие 9 сезон

Все сериалы

все сериалы на PB.wtf

RePack

FAR CRY 5

Anonymous, доброй ночи, мы катастрофически не успеваем собрать деньги на оплату серверов, помогите нам пожалуйста 5,10,15р., для нас важна любая помощь . В качестве благодарности мы отключим Вам всю рекламу на сайте (укажите свой ник в строку Ваше имя)!

×
  
Magnet ссылка

Алиса в Зазеркалье / Alice Through the Looking Glass (Джеймс Бобин) [2016, фэнтези, приключения, семейный, WEB-DLRip-AVC] Дублированный [iTunes] от R.G.Resident pb.wtf

Алиса в Зазеркалье через торрент pb.wtf

Размер: 2.6 GB | Добавлен: 4 года 10 мес. назад | Торрент скачан:684 раза
Скачать  

21-09-2016 04:09 Алиса в Зазеркалье Скачать торрент  

Alice Through the Looking Glass
««Весна - самое время сойти с ума»»


Год выпуска: 2016
Страна: США, Великобритания
Жанр: фэнтези, приключения, семейный

Продолжительность: 01:53:19
Перевод: Дублированный [iTunes]
Режиссер: Джеймс Бобин
В ролях:

Миа Васиковска (Alice Kingsleigh), Джонни Депп (Hatter Tarrant Hightopp), Хелена Бонем Картер (Iracebeth), Энн Хэтэуэй (Mirana), Саша Барон Коэн (Time), Рис Иванс (Zanik Hightopp), Мэтт Лукас (Tweedledee / Tweedledum), Линдси Дункан (Helen Kingsleigh), Лео Билл (Hamish), Джеральдин Джеймс (Lady Ascot), Эндрю Скотт (Dr. Addison Bennett), Ричард Армитедж (King Oleron)
Описание:
На этот раз главной героине предстоит отправиться в путешествие во времени, полное неожиданностей и ярких открытий, чтобы спасти своего друга, Безумного Шляпника.
Мировая премьера: 10 мая 2016

Качество: WEB-DLRip-AVC Rip by

Формат: MKV
Видео: AVC, 1024x554 (1.85:1), 2904 kbps, 23,976 fps, 0,214 bpp
Аудио: AC3 / 5.1 / 48 kHz / 384 kbps /

General
Unique ID : 247016553081305070619506415562824917261 (0xB9D5A85AB1536771B983413C8A74A10D)
Complete name : E:\Alice.2O16.WEB-DLRip-AVC.by.White Smoke.R.G.Resident.mkv
Format : Matroska
Format version : Version 4 / Version 2
File size : 2.60 GiB
Duration : 1 h 53 min
Overall bit rate : 3 289 kb/s
Movie name : Alice.2O16.WEB-DLRip-AVC.by.White Smoke.R.G.Resident.mkv
Encoded date : UTC 2016-09-21 03:20:26
Writing application : mkvmerge v6.8.0 ('Theme for Great Cities') 64bit built on Mar 2 2014 21:34:26
Writing library : libebml v1.3.0 + libmatroska v1.4.1

Video
ID : 1
Format : AVC
Format/Info : Advanced Video Codec
Format profile : High@L4.1
Format settings, CABAC : Yes
Format settings, ReFrames : 12 frames
Codec ID : V_MPEG4/ISO/AVC
Duration : 1 h 53 min
Bit rate : 2 904 kb/s
Width : 1 024 pixels
Height : 554 pixels
Display aspect ratio : 1.85:1
Frame rate mode : Constant
Frame rate : 23.976 (24000/1001) FPS
Color space : YUV
Chroma subsampling : 4:2:0
Bit depth : 8 bits
Scan type : Progressive
Bits/(Pixel*Frame) : 0.214
Stream size : 2.25 GiB (86%)
Writing library : x264 core 148 r2638 7599210
Encoding settings : cabac=1 / ref=12 / deblock=1:-3:-3 / analyse=0x3:0x113 / me=umh / subme=10 / psy=1 / psy_rd=1.00:0.00 / mixed_ref=1 / me_range=32 / chroma_me=1 / trellis=2 / 8x8dct=1 / cqm=0 / deadzone=21,11 / fast_pskip=1 / chroma_qp_offset=-2 / threads=12 / lookahead_threads=3 / sliced_threads=0 / nr=0 / decimate=1 / interlaced=0 / bluray_compat=0 / constrained_intra=0 / bframes=12 / b_pyramid=2 / b_adapt=2 / b_bias=12 / direct=1 / weightb=0 / open_gop=0 / weightp=2 / keyint=240 / keyint_min=23 / scenecut=40 / intra_refresh=0 / rc_lookahead=40 / rc=2pass / mbtree=1 / bitrate=2904 / ratetol=1.0 / qcomp=0.85 / qpmin=0 / qpmax=69 / qpstep=4 / cplxblur=20.0 / qblur=0.5 / ip_ratio=1.40 / aq=1:1.00
Language : English
Default : Yes
Forced : No

Audio
ID : 2
Format : AC-3
Format/Info : Audio Coding 3
Mode extension : CM (complete main)
Format settings, Endianness : Big
Codec ID : A_AC3
Duration : 1 h 53 min
Bit rate mode : Constant
Bit rate : 384 kb/s
Channel(s) : 6 channels
Channel positions : Front: L C R, Side: L R, LFE
Sampling rate : 48.0 kHz
Frame rate : 31.250 FPS (1536 spf)
Compression mode : Lossy
Stream size : 311 MiB (12%)
Default : Yes
Forced : No

© Оформление by White Smoke pb.wtf



Скачать Алиса в Зазеркалье через торрент https://pic1.kartinco.top/images/10/sxil3.jpg Скачать фильм Алиса в Зазеркалье через торрент бесплантно в хорошем качестве Описание: На этот раз главной героине предстоит отправиться в путешествие во времени, полное неожиданностей и ярких открытий, чтобы спасти ... 10 10 19
Info! Золотая раздача, скачанное не засчитывается.
Торрент: Зарегистрирован [2016-09-21 04:09] · скачан: 684 раз
Статус: √ проверено
Размер: 2.6 GB
Как cкачать? Как скачать Алиса в Зазеркалье через торрент | UTorrent

28-11-2019 20:33  

Отключить всю рекламу на сайте

21-09-2016 09:16 Алиса в Зазеркалье Скачать торрент  

При воспроизведении идут подлагивания.pb.wtf



22-09-2016 05:08 Алиса в Зазеркалье Скачать торрент  

Foxbyte писал(а):

При воспроизведении идут подлагивания.

Таки да, очень неприятно смотреть.pb.wtf



    Дорогой пользователь! Огромная просьба, поблагодарите релизера, оцените раздачу и оставьте свои комментарий, если Вы скачали Алиса в Зазеркалье через торрент бесплатно! Внесите свою лепту в развитие PiratBit!
    Комментировать посты могут только пользователи прошедшие не сложную регистрацию
    Показать сообщения:    

    Алиса в Зазеркалье через торрент
    Скачать бесплатно Алиса в Зазеркалье
    Алиса в Зазеркалье скачать торрент
    Алиса в Зазеркалье смотреть онлайн
    Cкачать фильм Алиса в Зазеркалье бесплатно
    Алиса в Зазеркалье скачать торрент в хорошем качестве
    Алиса в Зазеркалье смотреть онлайн бесплатно в хорошем качестве


    Вы не можете начинать темы
    Вы не можете отвечать на сообщения
    Вы не можете редактировать свои сообщения
    Вы не можете удалять свои сообщения
    Вы не можете голосовать в опросах
    Вы не можете прикреплять файлы к сообщениям
    Вы можете скачивать файлы