Доктор Стрэндж

Лицензия

Добыча

Дубляж

Уэнсдэй

1 сезон

Тор

Дубляж

В эфире

Дубляж

Там, где раки поют

MVO

Властелин колец

1 сезон

Deluxe

pack

Рекомендуем

30

Пиратка

ВАЖНО

ВАЖНО

Ghostwire

Пиратка

jed

RePack

nioh2

RePack

RDR2

RePack

NEED FOR SPEED™ PAYBACK

RePack

скачать торрент

Кинопоиск HD

Острые козырьки 6 сезон

6 сезон

FAR CRY 6

RePack

скачать торрент

Лицензия

скачать торрент

MVO

1

1 сезон

скачать торрент

1 сезон

скачать торрент

Лицензия

  

Бессмертная история / Histoire immortelle (Орсон Уэллс) [1968, драма, BDRip 720p ] 2 x MVO

Бессмертная история через торрент pb.wtf

Размер: 2.85 GB | Добавлен: 6 лет 2 мес. назад | Торрент скачан:21 раз
Смотреть онлайн | Скачать   

21-09-2016 06:34 Бессмертная история Скачать торрент  

Название:
Оригинальное название:
Год выпуска: 1968
Страна: Франция
Жанр: драма
Продолжительность: 00:58:00
Перевод: профессиональный многоголосый

Режиссёр: Орсон Уэллс

В ролях: Жанна Моро, Орсон Уэллс, Роже Кожьо, Норман Эшли, Фернандо Рей

Описание: XIX век. Португальская колония. Мистер Клэй - богатый стареющий торговец, о котором любят посплетничать в городе. Его секретарь мистер Левински рассказывает ему историю о том, как один богач заплатил бедному моряку крупную сумму, чтобы зачать ребёнка с его женой. Левински утверждает, что это всего лишь легенда, но Клэй, у которого нет наследника, решает сделать её правдой...



Качество: BDRip 720p Сравнение с исходником
Формат: MKV
Видео: MPEG-4 AVC, 6575 Кбит/с, 1196x720, 23,976 кадра/с
Аудио 1: русский, AC3, 128 kbps, 1 ch, 48 kHz [профессиональный многоголосый, ГТРК «Культура»]
Аудио 2: русский, AC3, 128 kbps, 1 ch, 48 kHz [профессиональный многоголосый, ТРК «Петербург 5 Канал»]
Аудио 3: английский, AC3, 192 kbps, 1 ch, 48 kHz [оригинал]
Субтитры: английские
Общее
Уникальный идентификатор : 197285890290503891547309585486874769179 (0x946BE16007C86C8AA8DEDDA35555771B)
Полное имя : D:\Video\Бессмертная история.1968.BDRip.720p.mkv
Формат : Matroska
Версия формата : Version 4 / Version 2
Размер файла : 2,85 Гбайт
Продолжительность : 58 м.
Общий поток : 7025 Кбит/сек
Дата кодирования : UTC 2016-09-19 16:14:29
Программа кодирования : mkvmerge v8.2.0 ('World of Adventure') 64bit
Библиотека кодирования : libebml v1.3.1 + libmatroska v1.4.2

Видео
Идентификатор : 1
Формат : AVC
Формат/Информация : Advanced Video Codec
Профиль формата : [email protected]
Параметр CABAC формата : Да
Параметр ReFrames формата : 9 кадров
Идентификатор кодека : V_MPEG4/ISO/AVC
Продолжительность : 58 м.
Битрейт : 6575 Кбит/сек
Ширина : 1196 пикселей
Высота : 720 пикселей
Соотношение сторон : 5:3
Режим частоты кадров : Постоянный
Частота кадров : 23,976 (24000/1001) кадра/сек
Цветовое пространство : YUV
Субдискретизация насыщенности : 4:2:0
Битовая глубина : 8 бит
Тип развёртки : Прогрессивная
Бит/(Пиксели*Кадры) : 0.318
Размер потока : 2,66 Гбайт (94%)
Библиотека кодирования : x264 core 146 r2538 121396c
Настройки программы : cabac=1 / ref=9 / deblock=1:-3:-3 / analyse=0x3:0x113 / me=umh / subme=10 / psy=1 / psy_rd=1.00:0.15 / mixed_ref=1 / me_range=32 / chroma_me=1 / trellis=2 / 8x8dct=1 / cqm=0 / deadzone=21,11 / fast_pskip=1 / chroma_qp_offset=-3 / threads=6 / lookahead_threads=1 / sliced_threads=0 / nr=0 / decimate=1 / interlaced=0 / bluray_compat=0 / constrained_intra=0 / bframes=14 / b_pyramid=2 / b_adapt=2 / b_bias=0 / direct=1 / weightb=1 / open_gop=0 / weightp=2 / keyint=230 / keyint_min=23 / scenecut=40 / intra_refresh=0 / rc_lookahead=40 / rc=crf / mbtree=0 / crf=19.5 / qcomp=0.60 / qpmin=0 / qpmax=69 / qpstep=4 / vbv_maxrate=40000 / vbv_bufsize=50000 / crf_max=0.0 / nal_hrd=none / filler=0 / ip_ratio=1.40 / pb_ratio=1.30 / aq=1:1.00
Язык : English
Default : Да
Forced : Нет

Аудио #1
Идентификатор : 2
Формат : AC-3
Формат/Информация : Audio Coding 3
Расширение режима : CM (complete main)
Параметр Endianness формата : Big
Идентификатор кодека : A_AC3
Продолжительность : 58 м.
Вид битрейта : Постоянный
Битрейт : 128 Кбит/сек
Каналы : 1 канал
Расположение каналов : Front: C
Частота : 48,0 КГц
Частота кадров : 31,250 кадров/сек (1536 spf)
Метод сжатия : С потерями
Размер потока : 53,1 Мбайт (2%)
Заголовок : MVO (ГТРК «Культура»)
Язык : Russian
Default : Да
Forced : Нет

Аудио #2
Идентификатор : 3
Формат : AC-3
Формат/Информация : Audio Coding 3
Расширение режима : CM (complete main)
Параметр Endianness формата : Big
Идентификатор кодека : A_AC3
Продолжительность : 58 м.
Вид битрейта : Постоянный
Битрейт : 128 Кбит/сек
Каналы : 1 канал
Расположение каналов : Front: C
Частота : 48,0 КГц
Частота кадров : 31,250 кадров/сек (1536 spf)
Метод сжатия : С потерями
Размер потока : 53,1 Мбайт (2%)
Заголовок : MVO (ТРК «Петербург 5 Канал»)
Язык : Russian
Default : Нет
Forced : Нет

Аудио #3
Идентификатор : 4
Формат : AC-3
Формат/Информация : Audio Coding 3
Расширение режима : CM (complete main)
Параметр Endianness формата : Big
Идентификатор кодека : A_AC3
Продолжительность : 58 м.
Вид битрейта : Постоянный
Битрейт : 192 Кбит/сек
Каналы : 1 канал
Расположение каналов : Front: C
Частота : 48,0 КГц
Частота кадров : 31,250 кадров/сек (1536 spf)
Метод сжатия : С потерями
Размер потока : 79,7 Мбайт (3%)
Заголовок : original
Язык : English
Default : Нет
Forced : Нет

Текст
Идентификатор : 5
Формат : UTF-8
Идентификатор кодека : S_TEXT/UTF8
Идентификатор кодека/Информация : UTF-8 Plain Text
Продолжительность : 55 м.
Битрейт : 62 бит/сек
Count of elements : 687
Размер потока : 25,2 Кбайт (0%)
Заголовок : английские
Язык : English
Default : Нет
Forced : Нет



Скачать Бессмертная история через торрент http://s11.radikal.ru/i183/1609/6b/14a100a772ed.jpg Скачать, смотреть онлайн Бессмертная история бесплантно в хорошем качестве Описание: XIX век. Португальская колония. Мистер Клэй - богатый стареющий торговец, о котором любят посплетничать в городе. Его секретарь ... 10 10 1
Info! Золотая раздача, скачанное не засчитывается.
Торрент: Зарегистрирован [2016-09-21 06:34] · скачан: 21 раз
Статус: √ проверено
Размер: 2.85 GB
Как cкачать? Как скачать Бессмертная история через торрент | UTorrent

% Раздел Тема Автор DL S | L
Фильмы [HD 720p, 1080p] (Хороший звук DUB, MVO) [ 8.14 GB ] Бессмертная история / Histoire immortelle | MVO | 1080p msltel Скачать
1 | 0

28-11-2019 20:33  


Отключить вcю реклaмy на сайте, в т.ч. и в плеере онлайн просмотра!

    Дорогой пользователь! Огромная просьба, поблагодарите релизера, оцените раздачу и оставьте свои комментарий, если Вы скачали Бессмертная история через торрент бесплатно!!
    Комментировать посты могут только пользователи прошедшие не сложную регистрацию
    Показать сообщения:    


    Бессмертная история через торрент
    Скачать бесплатно Бессмертная история
    Бессмертная история скачать торрент
    Бессмертная история смотреть онлайн
    Cкачать фильм Бессмертная история бесплатно
    Бессмертная история скачать торрент в хорошем качестве
    Бессмертная история смотреть онлайн бесплатно в хорошем качестве
    Вы не можете начинать темы
    Вы не можете отвечать на сообщения
    Вы не можете редактировать свои сообщения
    Вы не можете удалять свои сообщения
    Вы не можете голосовать в опросах
    Вы не можете прикреплять файлы к сообщениям
    Вы можете скачивать файлы
    Бессмертная история / Histoire immortelle [1968, драма, BDRip 720p ] 2 x MVO смотреть онлайн, скачать торрент picoco.icu