Ссылка на приватное зеркало нашего сайта всего за 1$. Внимание количество ограничено!!!

2 сезон

iTunes

1 сезон

1

iTunes

iTunes

iTunes

1 сезон

RePack

30

ИГРА 18+

pack

ВАЖНО

!!Акция!!

Alien_RageХит недели

RePack

MK11
pack

Забери бонус

RePack

jed

!!Акция!!

Alien_Rage

RePack

fifa19

RePack

Assassins Creed: Odyssey

RePack

NEED FOR SPEED™ PAYBACK

4 сезон

9 сезон

Бесстыжие 9 сезон

Все сериалы

все сериалы на PB.wtf

RePack

FAR CRY 5
  

Медсестра / 1 сезон / 1-12 серии из 12 (Михаил Журавкин) [2016 г., драма, HDTVRip 720p] pb.wtf

Медсестра через торрент pb.wtf

Размер: 15.57 GB | Добавлен: 4 года назад | Торрент скачан:73 раза
Скачать  

21-09-2016 07:34 Медсестра Скачать торрент  

Медсестра

(1-12 серии из 12)

Год выпуска: 2016
Страна: Россия
Жанр: драма
Продолжительность: 12 х ~ 00:50:00
Субтитры: отсутствуют

Режиссер: Михаил Журавкин

В ролях:

Виктория Толстоганова, Олег Фомин,Елена Полякова, Денис Бургазлиев, Михаил Трухин, Аглая Шиловская, Александр Пашков, Виктория Лукина, Елизавета Кононова, Елена Санаева, Ольга Волкова, Тамара Сёмина и др.

Описание:

Описание: Старшей медсестре городской больницы Анне Виталс, муж которой пропал без вести пять лет назад, приходится одной воспитывать взрослеющую дочь и ухаживать за пожилой матерью. Молодая женщина совсем не думает о себе и живет только работой. Она успешно руководит медицинским персоналом и не уступает в профессиональных навыках ведущим специалистам отделения. Ежедневно по роду своей деятельности Аня сталкивается с трагедией и болью людей, но не теряет чувства сострадания и старается всячески помочь попавшим в беду. Ее жизнь начинает меняться с приходом в больницу нового заведующего кардиологическим отделением Игоря Борисовича...

Качество: HDTVRip 720p
Формат: MKV
Видео кодек: AVC
Аудио кодек: AC3



Видео: 1280x544 (2.35:1), 24 fps, AVC MPEG-4 (x264), High@L4.1, 3500 Кbps avg, 0.201 bit/pixel
Аудио#1: 48 kHz, АС3, 2/0 (L,R), ~192.00 kbps avg
Общее
Уникальный идентификатор : 242315674866446066145097933141726405284 (0xB64C4D29FD7B2646A07ECFA36F3B22A4)
Полное имя : C:\Medsestra.HDTVRip.(720p).\Medsestra.01.HDTVRip.(720p).mkv
Формат : Matroska
Версия формата : Version 2
Размер файла : 1,36 Гбайт
Продолжительность : 52 м.
Общий поток : 3694 Кбит/сек
Дата кодирования : UTC 2016-09-12 19:35:12
Программа кодирования : mkvmerge v6.1.0 ('Old Devil') built on Mar 4 2013 09:10:42
Библиотека кодирования : libebml v1.3.0 + libmatroska v1.4.0

Видео
Идентификатор : 1
Формат : AVC
Формат/Информация : Advanced Video Codec
Профиль формата : High@L4.1
Параметр CABAC формата : Да
Параметр ReFrames формата : 9 кадров
Идентификатор кодека : V_MPEG4/ISO/AVC
Продолжительность : 52 м.
Битрейт : 3500 Кбит/сек
Ширина : 1280 пикселей
Высота : 544 пикселя
Соотношение сторон : 2,35:1
Режим частоты кадров : Постоянный
Частота кадров : 25,000 кадров/сек
Цветовое пространство : YUV
Субдискретизация насыщенности : 4:2:0
Битовая глубина : 8 бит
Тип развёртки : Прогрессивная
Бит/(Пиксели*Кадры) : 0.201
Размер потока : 1,26 Гбайт (93%)
Библиотека кодирования : x264 core 130 r2273 b3065e6
Настройки программы : cabac=1 / ref=9 / deblock=1:-2:-1 / analyse=0x3:0x113 / me=umh / subme=9 / psy=1 / psy_rd=1.00:0.15 / mixed_ref=1 / me_range=32 / chroma_me=1 / trellis=2 / 8x8dct=1 / cqm=0 / deadzone=21,11 / fast_pskip=0 / chroma_qp_offset=-3 / threads=6 / lookahead_threads=1 / sliced_threads=0 / nr=0 / decimate=0 / interlaced=0 / bluray_compat=0 / constrained_intra=0 / bframes=9 / b_pyramid=2 / b_adapt=2 / b_bias=0 / direct=3 / weightb=1 / open_gop=0 / weightp=2 / keyint=250 / keyint_min=25 / scenecut=40 / intra_refresh=0 / rc_lookahead=50 / rc=2pass / mbtree=1 / bitrate=3500 / ratetol=1.0 / qcomp=0.60 / qpmin=0 / qpmax=69 / qpstep=4 / cplxblur=20.0 / qblur=0.5 / vbv_maxrate=50000 / vbv_bufsize=50000 / nal_hrd=none / ip_ratio=1.40 / aq=2:1.00
Default : Да
Forced : Нет
Цветовой диапазон : Limited
Основные цвета : BT.709
Характеристики трансфера : BT.709
Коэффициенты матрицы : BT.709

Аудио
Идентификатор : 2
Формат : AC-3
Формат/Информация : Audio Coding 3
Расширение режима : CM (complete main)
Параметр Endianness формата : Big
Идентификатор кодека : A_AC3
Продолжительность : 52 м.
Вид битрейта : Постоянный
Битрейт : 192 Кбит/сек
Каналы : 2 канала
Расположение каналов : Front: L R
Частота : 48,0 КГц
Метод сжатия : С потерями
Размер потока : 72,2 Мбайт (5%)
Default : Да
Forced : Нет
скриншот  скриншот  скриншот  скриншот  
pb.wtf



Скачать Медсестра через торрент http://pic1.kartinco.top/images/10/bk3eb.jpg Скачать фильм Медсестра через торрент бесплантно в хорошем качестве Описание: Описание: Старшей медсестре городской больницы Анне Виталс, муж которой пропал без вести пять лет назад, приходится одной ... 10 10 8
Торрент: Зарегистрирован [2016-09-21 07:34] · скачан: 73 раз
Статус: √ проверено
Размер: 15.57 GB
Как cкачать? Как скачать Медсестра через торрент | qTorrent

28-11-2019 20:33  

Отключить всю рекламу на сайте

21-09-2016 13:43 Медсестра Скачать торрент  

Всем приятного просмотра) pb.wtf



    Дорогой пользователь! Огромная просьба, поблагодарите релизера, оцените раздачу и оставьте свои комментарий, если Вы скачали Медсестра через торрент бесплатно! Внесите свою лепту в развитие PiratBit!
    Комментировать посты могут только пользователи прошедшие не сложную регистрацию
    Показать сообщения:    

    Медсестра через торрент
    Скачать бесплатно Медсестра
    Медсестра скачать торрент
    Медсестра смотреть онлайн
    Cкачать фильм Медсестра бесплатно
    Медсестра скачать торрент в хорошем качестве
    Медсестра смотреть онлайн бесплатно в хорошем качестве


    Вы не можете начинать темы
    Вы не можете отвечать на сообщения
    Вы не можете редактировать свои сообщения
    Вы не можете удалять свои сообщения
    Вы не можете голосовать в опросах
    Вы не можете прикреплять файлы к сообщениям
    Вы можете скачивать файлы