Ссылка на приватное зеркало нашего сайта всего за 1$. Внимание количество ограничено!!!

2 сезон

iTunes

1 сезон

1

iTunes

iTunes

iTunes

1 сезон

RePack

30

ИГРА 18+

pack

ВАЖНО

!!Акция!!

Alien_RageХит недели

RePack

MK11
pack

Забери бонус

RePack

jed

!!Акция!!

Alien_Rage

RePack

fifa19

RePack

Assassins Creed: Odyssey

RePack

NEED FOR SPEED™ PAYBACK

4 сезон

9 сезон

Бесстыжие 9 сезон

Все сериалы

все сериалы на PB.wtf

RePack

FAR CRY 5
  

Бессмертная история / Histoire immortelle (Орсон Уэллс) [1968, драма, BDRip 1080p by msltel] 2 x MVO pb.wtf

Бессмертная история через торрент pb.wtf

Размер: 8.14 GB | Добавлен: 4 года назад | Торрент скачан:7 раз
Скачать  

21-09-2016 07:49 Бессмертная история Скачать торрент  

Название:
Оригинальное название:
Год выпуска: 1968
Страна: Франция
Жанр: драма
Продолжительность: 00:58:00
Перевод: профессиональный многоголосый

Режиссёр: Орсон Уэллс

В ролях: Жанна Моро, Орсон Уэллс, Роже Кожьо, Норман Эшли, Фернандо Рей

Описание: XIX век. Португальская колония. Мистер Клэй - богатый стареющий торговец, о котором любят посплетничать в городе. Его секретарь мистер Левински рассказывает ему историю о том, как один богач заплатил бедному моряку крупную сумму, чтобы зачать ребёнка с его женой. Левински утверждает, что это всего лишь легенда, но Клэй, у которого нет наследника, решает сделать её правдой...



Качество: BDRip 1080p Сравнение с исходником
Формат: MKV
Видео: MPEG-4 AVC, 19.6 Mбит/с, 1792x1080, 23,976 кадра/с
Аудио 1: русский, AC3, 128 kbps, 1 ch, 48 kHz [профессиональный многоголосый, ГТРК «Культура»]
Аудио 2: русский, AC3, 128 kbps, 1 ch, 48 kHz [профессиональный многоголосый, ТРК «Петербург 5 Канал»]
Аудио 3: английский, AC3, 192 kbps, 1 ch, 48 kHz [оригинал]
Субтитры: английские
Общее
Уникальный идентификатор : 175122050689939629552685940757444073716 (0x83BF47B6E71EA0229DF74407722A98F4)
Полное имя : D:\Video\Бессмертная история.1968.BDRip.1080p.mkv
Формат : Matroska
Версия формата : Version 4 / Version 2
Размер файла : 8,14 Гбайт
Продолжительность : 58 м.
Общий поток : 20,1 Мбит/сек
Дата кодирования : UTC 2016-09-21 01:26:09
Программа кодирования : mkvmerge v8.2.0 ('World of Adventure') 64bit
Библиотека кодирования : libebml v1.3.1 + libmatroska v1.4.2

Видео
Идентификатор : 1
Формат : AVC
Формат/Информация : Advanced Video Codec
Профиль формата : High@L4.1
Параметр CABAC формата : Да
Параметр ReFrames формата : 4 кадра
Идентификатор кодека : V_MPEG4/ISO/AVC
Продолжительность : 58 м.
Битрейт : 19,6 Мбит/сек
Ширина : 1792 пикселя
Высота : 1080 пикселей
Соотношение сторон : 5:3
Режим частоты кадров : Постоянный
Частота кадров : 23,976 (24000/1001) кадра/сек
Цветовое пространство : YUV
Субдискретизация насыщенности : 4:2:0
Битовая глубина : 8 бит
Тип развёртки : Прогрессивная
Бит/(Пиксели*Кадры) : 0.423
Размер потока : 7,96 Гбайт (98%)
Библиотека кодирования : x264 core 146 r2538 121396c
Настройки программы : cabac=1 / ref=4 / deblock=1:-3:-3 / analyse=0x3:0x113 / me=umh / subme=10 / psy=1 / psy_rd=1.00:0.15 / mixed_ref=1 / me_range=32 / chroma_me=1 / trellis=2 / 8x8dct=1 / cqm=0 / deadzone=21,11 / fast_pskip=1 / chroma_qp_offset=-3 / threads=6 / lookahead_threads=1 / sliced_threads=0 / nr=0 / decimate=1 / interlaced=0 / bluray_compat=0 / constrained_intra=0 / bframes=14 / b_pyramid=2 / b_adapt=2 / b_bias=0 / direct=1 / weightb=1 / open_gop=0 / weightp=2 / keyint=230 / keyint_min=23 / scenecut=40 / intra_refresh=0 / rc_lookahead=40 / rc=crf / mbtree=0 / crf=19.6 / qcomp=0.60 / qpmin=0 / qpmax=69 / qpstep=4 / vbv_maxrate=40000 / vbv_bufsize=50000 / crf_max=0.0 / nal_hrd=none / filler=0 / ip_ratio=1.40 / pb_ratio=1.30 / aq=1:1.00
Язык : English
Default : Да
Forced : Нет

Аудио #1
Идентификатор : 2
Формат : AC-3
Формат/Информация : Audio Coding 3
Расширение режима : CM (complete main)
Параметр Endianness формата : Big
Идентификатор кодека : A_AC3
Продолжительность : 58 м.
Вид битрейта : Постоянный
Битрейт : 128 Кбит/сек
Каналы : 1 канал
Расположение каналов : Front: C
Частота : 48,0 КГц
Частота кадров : 31,250 кадров/сек (1536 spf)
Метод сжатия : С потерями
Размер потока : 53,1 Мбайт (1%)
Заголовок : MVO (ГТРК «Культура»)
Язык : Russian
Default : Да
Forced : Нет

Аудио #2
Идентификатор : 3
Формат : AC-3
Формат/Информация : Audio Coding 3
Расширение режима : CM (complete main)
Параметр Endianness формата : Big
Идентификатор кодека : A_AC3
Продолжительность : 58 м.
Вид битрейта : Постоянный
Битрейт : 128 Кбит/сек
Каналы : 1 канал
Расположение каналов : Front: C
Частота : 48,0 КГц
Частота кадров : 31,250 кадров/сек (1536 spf)
Метод сжатия : С потерями
Размер потока : 53,1 Мбайт (1%)
Заголовок : MVO (ТРК «Петербург 5 Канал»)
Язык : Russian
Default : Нет
Forced : Нет

Аудио #3
Идентификатор : 4
Формат : AC-3
Формат/Информация : Audio Coding 3
Расширение режима : CM (complete main)
Параметр Endianness формата : Big
Идентификатор кодека : A_AC3
Продолжительность : 58 м.
Вид битрейта : Постоянный
Битрейт : 192 Кбит/сек
Каналы : 1 канал
Расположение каналов : Front: C
Частота : 48,0 КГц
Частота кадров : 31,250 кадров/сек (1536 spf)
Метод сжатия : С потерями
Размер потока : 79,7 Мбайт (1%)
Заголовок : original
Язык : English
Default : Нет
Forced : Нет

Текст
Идентификатор : 5
Формат : UTF-8
Идентификатор кодека : S_TEXT/UTF8
Идентификатор кодека/Информация : UTF-8 Plain Text
Продолжительность : 55 м.
Битрейт : 62 бит/сек
Count of elements : 687
Размер потока : 25,2 Кбайт (0%)
Заголовок : английские
Язык : English
Default : Нет
Forced : Нет
pb.wtf



Скачать Бессмертная история через торрент http://s11.radikal.ru/i183/1609/6b/14a100a772ed.jpg Скачать фильм Бессмертная история через торрент бесплантно в хорошем качестве Описание: XIX век. Португальская колония. Мистер Клэй - богатый стареющий торговец, о котором любят посплетничать в городе. Его секретарь ... 10 10 2
Info! Золотая раздача, скачанное не засчитывается.
Торрент: Зарегистрирован [2016-09-21 07:49] · скачан: 7 раз
Статус: √ проверено
Размер: 8.14 GB
Как cкачать? Как скачать Бессмертная история через торрент | qTorrent

% Раздел Тема Автор DL S | L
Фильмы [HD 720p, 1080p] (Хороший звук DUB, MVO) [ 2.85 GB ] Бессмертная история / Histoire immortelle [1968 BDRip 720p by msltel] 2 x MVO msltel Скачать
1 | 0

28-11-2019 20:33  

Отключить всю рекламу на сайте

21-09-2016 11:25 Бессмертная история Скачать торрент  

Классика!pb.wtf



    Дорогой пользователь! Огромная просьба, поблагодарите релизера, оцените раздачу и оставьте свои комментарий, если Вы скачали Бессмертная история через торрент бесплатно! Внесите свою лепту в развитие PiratBit!
    Комментировать посты могут только пользователи прошедшие не сложную регистрацию
    Показать сообщения:    

    Бессмертная история через торрент
    Скачать бесплатно Бессмертная история
    Бессмертная история скачать торрент
    Бессмертная история смотреть онлайн
    Cкачать фильм Бессмертная история бесплатно
    Бессмертная история скачать торрент в хорошем качестве
    Бессмертная история смотреть онлайн бесплатно в хорошем качестве


    Вы не можете начинать темы
    Вы не можете отвечать на сообщения
    Вы не можете редактировать свои сообщения
    Вы не можете удалять свои сообщения
    Вы не можете голосовать в опросах
    Вы не можете прикреплять файлы к сообщениям
    Вы можете скачивать файлы