Ссылка на приватное зеркало всего за 1$. Внимание количество ограничено!!!

OK

1+1

iTunes

мы

OK

1

WEB-DLRip

Джокер

Пифагор

Ведьмак / The Witcher сериал

Лицензия

ПШазам

ОК

Оно 2

iTunes

30
pack

Вам бонус

ВАЖНО

!!Акция!!

Alien_RageХит недели

RePack

Resident Evil 21

ИГРА 18+

pack

RePack

jed

!!Акция!!

Alien_Rage

RePack

fifa19

RePack

Assassins Creed: Odyssey

RePack

NEED FOR SPEED™ PAYBACK

4 сезон

9 сезон

Бесстыжие 9 сезон

Все сериалы

все сериалы на PB.wtf

RePack

FAR CRY 5
  

Блэкберн / Blackburn (Лауро Чартрэнд) [2015 г., ужасы, HDRip] AVO [Xixidok] pb.wtf

Блэкберн через торрент pb.wtf

Размер: 738 MB | Добавлен: 3 года 3 мес. назад | Торрент скачан:94 раза
Скачать  

21-09-2016 12:28 Блэкберн Скачать торрент  

Блэкберн / Blackburn

Год выпуска: 2015
Страна: Канада
Жанр: ужасы
Продолжительность: 01:24:28
Перевод: Любительский (одноголосый) [Xixidok]
Субтитры: отсутствуют

Режиссер: Лауро Чартрэнд

В ролях:

Локлин Манро, Майк Допуд, Кэлам Уорси,Эмили Уллерап, Сара Линд, Кен Кирзингер, Сильвия Соска, Джен Соска, Александр Кэлверт, Брэд Лори

Описание:

Лесной пожар и оползень запирают пятерых друзей по колледжу в ловушку в маленьком аляскинском городке-призраке с ужасающей историей. Когда они пытаются найти убежище в руинах шахты, рядом с сгоревшей психиатрической клиники Блэкберн, им приходится вступить в борьбу за выживание с разгневанными психами, желающими убить друзей одного за другим.

Качество: HDRip
Формат: AVI
Видео кодек: XviD
Аудио кодек: MP3

rating

Видео: 640x272 (2.35:1), 23.976 fps, XviD MPEG-4 ~1020 kbps avg, 0.24 bit/pixel
Аудио#1: 44.100 kHz, MPEG Layer 3, 2 ch, ~192.00 kbps avg
Общее
Полное имя : D:\торреннты\Blackburn.2015.Xixidok.avi\Blackburn.2015.Xixidok.avi
Формат : AVI
Формат/Информация : Audio Video Interleave
Размер файла : 738 Мбайт
Продолжительность : 1 ч. 24 м.
Общий поток : 1222 Кбит/сек
Программа кодирования : VirtualDubMod 1.5.10.3 (build 2550/release)
Библиотека кодирования : VirtualDubMod build 2550/release

Видео
Идентификатор : 0
Формат : MPEG-4 Visual
Профиль формата : Advanced Simple@L5
Параметр BVOP формата : 2
Параметр QPel формата : Нет
Параметр GMC формата : Без точки перехода
Параметр матрицы формата : Default (H.263)
Режим смешивания : Сжатый битовый поток
Идентификатор кодека : XVID
Идентификатор кодека/Подсказка : XviD
Продолжительность : 1 ч. 24 м.
Битрейт : 1020 Кбит/сек
Ширина : 640 пикселей
Высота : 272 пикселя
Соотношение сторон : 2,35:1
Частота кадров : 23,976 (24000/1001) кадра/сек
Цветовое пространство : YUV
Субдискретизация насыщенности : 4:2:0
Битовая глубина : 8 бит
Тип развёртки : Прогрессивная
Метод сжатия : С потерями
Бит/(Пиксели*Кадры) : 0.244
Размер потока : 616 Мбайт (84%)
Библиотека кодирования : XviD 64

Аудио
Идентификатор : 1
Формат : MPEG Audio
Версия формата : Version 1
Профиль формата : Layer 3
Идентификатор кодека : 55
Идентификатор кодека/Подсказка : MP3
Продолжительность : 1 ч. 24 м.
Вид битрейта : Постоянный
Битрейт : 192 Кбит/сек
Каналы : 2 канала
Частота : 44,1 КГц
Метод сжатия : С потерями
Размер потока : 116 Мбайт (16%)
Выравнивание : Разделение по промежуткам
Продолжительность промежутка : 42 мс. (1,00 видеокадр)
Время предзагрузки промежутка : 500 мс.
скриншот  скриншот  скриншот  скриншот  

скриншот   скриншот  скриншот  скриншот  
Диалог из фильма:
- Любишь котов?
- Да. Как его зовут?
- Его зовут Трупное Окоченение.
pb.wtf



Скачать Блэкберн через торрент https://st.kp.yandex.net/images/film_iphone/iphone360_819982.jpg Скачать фильм Блэкберн через торрент бесплантно в хорошем качестве Описание: Лесной пожар и оползень запирают пятерых друзей по колледжу в ловушку в маленьком аляскинском городке-призраке с ужасающей ... 8.7 10 7
Торрент: Зарегистрирован [2016-09-21 12:28] · скачан: 94 раз
Статус: T временная
Размер: 738 MB
Как cкачать? Как скачать Блэкберн через торрент | qTorrent

% Раздел Тема Автор DL S | L
Фильмы (DVD фильмы) [ 6.01 GB ] Взаперти / Shut In [2016 DVD9] [MVO] [ R5] killermax2013 Скачать
1 | 0
Зарубежные сериалы [ 5.95 GB ] Железный кулак / Iron Fist / Сезон: 2 / Серии 1-10 из 10 [2018 WEBRip] MVO [BaibaKo] GEKADOL Скачать
1 | 0
Зарубежные сериалы [ 13.57 GB ] Железный кулак / Iron Fist / Сезон 1 / Серии 1-13 из 13 [2017 WEBRip-AVC] MVO [NewStudio] GEKADOL Скачать
1 | 0
Зарубежные сериалы [ 7.24 GB ] Защитники / The Defenders / Сезон: 1 / Серии: 1-8 из 8 [2017 WEBRip от keeper.52] MVO keeper.52 Скачать
2 | 0
Зарубежные сериалы [ 13.48 GB ] Железный кулак / Iron Fist / Сезон 1 / Серии 1-13 из 13 [2017 WEBRip-AVC] MVO [BaibaKo] GEKADOL Скачать
1 | 1
Зарубежные сериалы [ 10.82 GB ] Мушкетеры / The Musketeers / Сезон: 3 / Серии 1-10 из 10 [2016 WEB-DLRip-AVC] MVO [BaibaKo] GEKADOL Скачать
1 | 0
Зарубежные сериалы [ 13.85 GB ] Сорвиголова / Daredevil / Сезон: 2 / Серии 1-13 из 13 [2016 WEBRip-AVC] MVO [BaibaKo] GEKADOL Скачать
1 | 0


Последний раз редактировалось: bober100 (2016-09-21 16:16), всего редактировалось 3 раз(а)

28-11-2019 20:33  

Отключить всю рекламу на сайте

21-09-2016 13:52 Блэкберн Скачать торрент  

Диалог из фильма:
- Любишь котов?
- Да. Как его зовут?
- Его зовут Трупное Окоченение



pb.wtf



21-09-2016 14:03 Блэкберн Скачать торрент  

bober100, что с рекламой?pb.wtf



21-09-2016 14:19 Блэкберн Скачать торрент  

schultz писал(а):

bober100, что с рекламой?

Реклама есть!!!pb.wtf



21-09-2016 14:35 Блэкберн Скачать торрент  

Всем приятного просмотра) pb.wtf



21-09-2016 15:56 Блэкберн Скачать торрент  

если фильм озвучивает этот ё....й хихидок...П....на х...кароч туши светpb.wtf



21-09-2016 17:10 Блэкберн Скачать торрент  

lij писал(а):

если фильм озвучивает этот ё....й хихидок...П....на х...кароч туши свет

Да получше будет дэна 904 с его кортавой подржкой, гореть им обоим в аду за их союз!

bober100 писал(а):

Всем приятного просмотра)

Спасибо!!!pb.wtf



21-09-2016 17:18 Блэкберн Скачать торрент  

zra писал(а):

Диалог из фильма:
- Любишь котов?
- Да. Как его зовут?
- Его зовут Трупное Окоченение




это точно) pb.wtf



21-09-2016 17:20 Блэкберн Скачать торрент  

lij писал(а):

если фильм озвучивает этот ё....й хихидок...П....на х...кароч туши свет

не нравится озвучка проходи мимо pb.wtf



21-09-2016 18:29 Блэкберн Скачать торрент  

Peps, солидарен с тобой pb.wtf



22-09-2016 14:29 Блэкберн Скачать торрент  

хуху док и ужасы - ядреная смесь.
Капец, шах и мат. :)))pb.wtf



22-09-2016 16:44 Блэкберн Скачать торрент  

rah7, да он такой парень) pb.wtf



    Дорогой пользователь! Огромная просьба, поблагодарите релизера, оцените раздачу и оставьте свои комментарий, если Вы скачали Блэкберн через торрент бесплатно! Внесите свою лепту в развитие PiratBit!
    Комментировать посты могут только пользователи прошедшие не сложную регистрацию
    Показать сообщения:    

    Блэкберн через торрент
    Скачать бесплатно Блэкберн
    Блэкберн скачать торрент
    Блэкберн смотреть онлайн
    Cкачать фильм Блэкберн бесплатно
    Блэкберн скачать торрент в хорошем качестве
    Блэкберн смотреть онлайн бесплатно в хорошем качестве


    Вы не можете начинать темы
    Вы не можете отвечать на сообщения
    Вы не можете редактировать свои сообщения
    Вы не можете удалять свои сообщения
    Вы не можете голосовать в опросах
    Вы не можете прикреплять файлы к сообщениям
    Вы можете скачивать файлы