Ссылка на приватное зеркало всего за 1$. Внимание количество ограничено!!!

iTunes

1+1

iTunes

мы

MV0

1

WEB-DLRip

Джокер

Пифагор

Ведьмак / The Witcher сериал

iTunes

ПШазам

iTunes

Оно 2

iTunes

30
pack

Вам бонус

ВАЖНО

!!Акция!!

Alien_RageХит недели

RePack

Resident Evil 21

ИГРА 18+

pack

RePack

jed

!!Акция!!

Alien_Rage

RePack

fifa19

RePack

Assassins Creed: Odyssey

RePack

NEED FOR SPEED™ PAYBACK

4 сезон

9 сезон

Бесстыжие 9 сезон

Все сериалы

все сериалы на PB.wtf

RePack

FAR CRY 5
  

Калина красная (Василий Шукшин ) [1973, драма, HDRip-AVC] pb.wtf

Калина красная через торрент pb.wtf

Размер: 3.16 GB | Добавлен: 3 года 4 мес. назад | Торрент скачан:27 раз
Скачать  

21-09-2016 19:57 Калина красная Скачать торрент  

Калина красная

Год выпуска: 1973
Страна: СССР
Жанр: драма

Продолжительность: 01:41:52
Перевод: Отсутствует [Оригинал]
Режиссер: Василий Шукшин
В ролях: Василий Шукшин (Егор Прокудин), Лидия Федосеева-Шукшина (Люба Байкалова), Иван Рыжов (отец Любы), Мария Скворцова (мать Любы), Алексей Ванин (Петр), Мария Виноградова (Зоя), Афимья Быстрова (мать Егора), Лев Дуров (Сергей Михайлович, официант в ресторане), Николай Граббе (начальник колонии), Георгий Бурков («Губошлёп»), Татьяна Гаврилова (Люсьен), Александр Горбенко (Коля Байкалов)
Описание:
Выйдя из тюрьмы, Егор Прокудин, по кличке Горе, решает податься в деревню, где живет синеглазая незнакомка Люба, с которой он переписывался - ведь надо немного переждать и осмотреться. Но жизнь в деревне рушит все планы Егора, и он решает навсегда порвать с прошлым. Теперь у него есть друзья, работа. Он любит Любу. Однако дружки Егора упорно не отпускают его...

Качество: HDRip-AVC
Формат: MKV
Видео: AVC, 960x720 (4:3), 4165 kbps, 25 fps, 0,241 bpp
Аудио: русский / AC3 / 2.0 / 48 kHz / 256 kbps /

General
Unique ID
Complete name Калина красная.mkv
Format : Matroska
Format version : Version 4 / Version 2
File size : 3.16 GiB
Duration : 1 h 41 min
Overall bit rate : 4 440 kb/s
Movie name : Калина красная (rip by smithland)
Encoded date : UTC 2016-09-16 10:01:33
Writing application : mkvmerge v9.4.2 ('So High') 64bit
Writing library : libebml v1.3.4 + libmatroska v1.4.5
Cover : Yes
Attachments : COVER.jpg

Video
ID : 1
Format : AVC
Format/Info : Advanced Video Codec
Format profile : High@L4
Format settings, CABAC : Yes
Format settings, ReFrames : 10 frames
Codec ID : V_MPEG4/ISO/AVC
Duration : 1 h 41 min
Bit rate : 4 165 kb/s
Width : 960 pixels
Height : 720 pixels
Display aspect ratio : 4:3
Frame rate mode : Constant
Frame rate : 25.000 FPS
Color space : YUV
Chroma subsampling : 4:2:0
Bit depth : 8 bits
Scan type : Progressive
Bits/(Pixel*Frame) : 0.241
Stream size : 2.98 GiB (94%)
Writing library : x264 core 146 r2538 121396c
Encoding settings : cabac=1 / ref=10 / deblock=1:-1:1 / analyse=0x3:0x133 / me=umh / subme=11 / psy=1 / psy_rd=1.30:0.25 / mixed_ref=1 / me_range=26 / chroma_me=1 / trellis=2 / 8x8dct=1 / cqm=0 / deadzone=21,11 / fast_pskip=1 / chroma_qp_offset=-4 / threads=12 / lookahead_threads=1 / sliced_threads=0 / nr=0 / decimate=0 / interlaced=0 / bluray_compat=0 / constrained_intra=0 / bframes=8 / b_pyramid=2 / b_adapt=1 / b_bias=0 / direct=1 / weightb=1 / open_gop=1 / weightp=2 / keyint=250 / keyint_min=25 / scenecut=40 / intra_refresh=0 / rc_lookahead=40 / rc=abr / mbtree=1 / bitrate=4165 / ratetol=1.0 / qcomp=0.60 / qpmin=0 / qpmax=69 / qpstep=4 / ip_ratio=1.40 / aq=1:1.10
Language : Russian
Default : Yes
Forced : Yes
Color range : Limited
Color primaries : Generic film

Audio
ID : 2
Format : AC-3
Format/Info : Audio Coding 3
Mode extension : CM (complete main)
Format settings, Endianness : Big
Codec ID : A_AC3
Duration : 1 h 41 min
Bit rate mode : Constant
Bit rate : 256 kb/s
Channel(s) : 2 channels
Channel positions : Front: L R
Sampling rate : 48.0 kHz
Frame rate : 31.250 FPS (1536 spf)
Compression mode : Lossy
Stream size : 187 MiB (6%)
Language : Russian
Default : Yes
Forced : Yes
Скриншоты:
pb.wtf



Скачать Калина красная через торрент http://i5.imageban.ru/out/2016/09/21/def7555d9f893286e2e3ab0ca6a7e216.jpg Скачать фильм Калина красная через торрент бесплантно в хорошем качестве Описание: Выйдя из тюрьмы, Егор Прокудин, по кличке Горе, решает податься в деревню, где живет синеглазая незнакомка Люба, с которой он ... 10 10 9
Торрент: Зарегистрирован [2016-09-21 19:57] · скачан: 27 раз
Статус: √ проверено
Размер: 3.16 GB
Как cкачать? Как скачать Калина красная через торрент | qTorrent

% Раздел Тема Автор DL S | L
Кино СССР [ 6.53 GB ] Калина красная [1973 WEB-DLRip 1080p] - KORSAR kisa1980 Скачать
1 | 0
Кино СССР [ 1.99 GB ] Калина красная / Kalina krasnaya [1973 ... DVDRip лицензия] allexx70 Скачать
1 | 0
Сборники отечественного шансона [ 188 MB ] VA - Калина красная. Песни спетые сердцем 2016 / MP3 / 320 kbps / Шансон bober100 Скачать
1 | 0
Сборники отечественного шансона [ 732 MB ] VA- Калина красная. Душевный шансон 2015 / MP3 / 256 kbps / Шансон Бумер Скачать
1 | 0
Кино СССР [ 4.07 GB ] Калина красная [1973 DVD5] =GAS= Скачать
1 | 0

28-11-2019 20:33  

Отключить всю рекламу на сайте

25-09-2016 18:23 Калина красная Скачать торрент  

Эх! На недельку бы пораньше выложил.... Я только его в ютюбе посмотрел.... Фильм Очень нравится.pb.wtf



    Дорогой пользователь! Огромная просьба, поблагодарите релизера, оцените раздачу и оставьте свои комментарий, если Вы скачали Калина красная через торрент бесплатно! Внесите свою лепту в развитие PiratBit!
    Комментировать посты могут только пользователи прошедшие не сложную регистрацию
    Показать сообщения:    

    Калина красная через торрент
    Скачать бесплатно Калина красная
    Калина красная скачать торрент
    Калина красная смотреть онлайн
    Cкачать фильм Калина красная бесплатно
    Калина красная скачать торрент в хорошем качестве
    Калина красная смотреть онлайн бесплатно в хорошем качестве


    Вы не можете начинать темы
    Вы не можете отвечать на сообщения
    Вы не можете редактировать свои сообщения
    Вы не можете удалять свои сообщения
    Вы не можете голосовать в опросах
    Вы не можете прикреплять файлы к сообщениям
    Вы можете скачивать файлы