Ссылка на приватное зеркало всего за 1$. Внимание количество ограничено!!!

iTunes

iTunes

iTunes

1

iTunes

iTunes

iTunes

iTunes

iTunes

30
pack

$ от Little Big

ВАЖНО

!!Акция!!

Alien_RageХит недели

RePack

Resident Evil 21

ИГРА 18+

pack

RePack

jed

!!Акция!!

Alien_Rage

RePack

fifa19

RePack

Assassins Creed: Odyssey

RePack

NEED FOR SPEED™ PAYBACK

4 сезон

9 сезон

Бесстыжие 9 сезон

Все сериалы

все сериалы на PB.wtf

RePack

FAR CRY 5
  

Любой ценой / Hell or High Water (Дэвид Маккензи) [2016, драма, криминал, WEB-DL 1080p] Дубляж - [Лицензия / iTunes] pb.wtf

Любой ценой через торрент pb.wtf

Размер: 3.48 GB | Добавлен: 3 года 9 мес. назад | Торрент скачан:3392 раза
Скачать  

21-09-2016 19:59 Любой ценой Скачать торрент  


Любой ценой / Hell or High Water
««Справедливость - это не преступление»»

ИНФОРМАЦИЯ:
Год выпуска:2016
Страна: США
Жанр: драма, криминал
Продолжительность: 01:37:43
Перевод: Дубляж - [Лицензия / iTunes]
Режиссер: Дэвид Маккензи

В Ролях:


Джефф Бриджес (Marcus Hamilton), Крис Пайн (Toby Howard), Бен Фостер (Tanner Howard), Джил Бирмингем (Alberto Parker), Дейл Дикки (Elsie), Уильям Стерчи (Mr. Clauson), Бак Тейлор (Old Man), Кристин Берг (Olney Teller), Кит Мэривезер (Rancher), Жакмо Буззел (Archer City Deputy), Кэти Миксон (Jenny Ann), Эмбер Мидфандер (Vernon Teller)

ОПИСАНИЕ:
Два брата-лузера решают наведаться в хранилища пары-тройки банков, которые много лет безбожно обкрадывают своих должников. Расследование дерзких ограблений с грубым почерком увенчает карьеру шерифа Маркуса. Но куда выведет это нехитрое дело?

  • Мировая премьера:16 мая 2016

    ТЕХ.ДАННЫЕ:
    Качество: WEB-DL 1080p
    Формат: MKV
    Видео: AVC, 1920x804 (2.40:1), 4611 kbps, 25 fps, 0,119 bpp
    Аудио: русский / AC3 / 5.1 / 48 kHz / 384 kbps / ||
    Навигация по главам: есть


    General
    Unique ID : 196276372818187264597118017358238900623 (0x93A97452285A9285A737A8CB575CE18F)
    Complete name : W:\Торенты\Hell.or.High.Water.2016.1080p.WEB-DL.Rus.HDCLUB.mkv
    Format : Matroska
    Format version : Version 2
    File size : 3.48 GiB
    Duration : 1 h 37 min
    Overall bit rate : 5 097 kb/s
    Movie name : Hell or High Water (2016) - Release for HDCLUB
    Encoded date : UTC 2016-09-21 19:16:09
    Writing application : mkvmerge v3.4.0 ('Rapunzel') built on May 15 2010 09:38:20
    Writing library : libebml v0.8.0 + libmatroska v0.9.0

    Video
    ID : 1
    Format : AVC
    Format/Info : Advanced Video Codec
    Format profile : High@L4
    Format settings, CABAC : Yes
    Format settings, ReFrames : 5 frames
    Codec ID : V_MPEG4/ISO/AVC
    Duration : 1 h 37 min
    Bit rate : 4 612 kb/s
    Width : 1 920 pixels
    Height : 804 pixels
    Display aspect ratio : 2.40:1
    Frame rate mode : Constant
    Frame rate : 25.000 FPS
    Color space : YUV
    Chroma subsampling : 4:2:0
    Bit depth : 8 bits
    Scan type : Progressive
    Bits/(Pixel*Frame) : 0.119
    Stream size : 3.15 GiB (90%)
    Title : Hell or High Water (2016) - Release for HDCLUB
    Language : English
    Default : Yes
    Forced : No
    Color range : Limited
    Color primaries : BT.709
    Transfer characteristics : BT.709
    Matrix coefficients : BT.709

    Audio
    ID : 2
    Format : AC-3
    Format/Info : Audio Coding 3
    Mode extension : CM (complete main)
    Format settings, Endianness : Big
    Codec ID : A_AC3
    Duration : 1 h 37 min
    Bit rate mode : Constant
    Bit rate : 384 kb/s
    Channel(s) : 6 channels
    Channel positions : Front: L C R, Side: L R, LFE
    Sampling rate : 48.0 kHz
    Frame rate : 31.250 FPS (1536 spf)
    Compression mode : Lossy
    Stream size : 268 MiB (8%)
    Title : AC3 5.1 @ 384 kbps - DUB, iTunes
    Language : Russian
    Default : Yes
    Forced : No

    Menu
    00:00:00.000 : en:1
    00:04:56.440 : en:2
    00:09:49.040 : en:3
    00:16:18.880 : en:4
    00:24:04.320 : en:5
    00:33:06.000 : en:6
    00:39:17.760 : en:7
    00:46:26.000 : en:8
    00:53:07.880 : en:9
    01:00:00.560 : en:10
    01:06:40.960 : en:11
    01:11:35.120 : en:12
    01:17:17.120 : en:13
    01:22:45.840 : en:14
    Скриншоты:

    © Оформление by .::Ворон::.
    pb.wtf



  • Скачать Любой ценой через торрент http://pic.kartinco.top/images/6/ordi9.jpg Скачать фильм Любой ценой через торрент бесплантно в хорошем качестве Е:Два брата-лузера решают наведаться в хранилища пары-тройки банков, которые много лет безбожно обкрадывают своих должников. Расследование ... 9.9 10 63
    Info! Золотая раздача, скачанное не засчитывается.
    Торрент: Зарегистрирован [2016-09-21 19:59] · скачан: 3 392 раз
    Статус: √ проверено
    Размер: 3.48 GB
    Как cкачать? Как скачать Любой ценой через торрент | qTorrent

    % Раздел Тема Автор DL S | L
    Фильмы с авторской озвучкой [ 1.46 GB ] Любой ценой / Hell or High Water [2016 BDRip] AVO [Д.Пучков aka Goblin] Twi7ter Скачать
    1 | 0
    Фильмы с авторской озвучкой [ 1.46 GB ] Любой ценой / Hell or High Water [2016 BDRip] [AVO] killermax2013 Скачать
    1 | 0
    Ultra HD (UHD: 2K, 4K, 8K) — видео сверхвысокой чёткости [ 64.61 GB ] Любой ценой / Hell or High Water [2016 UHD BDRemux 2160p] 3xAVO+DUB [] bober100 Скачать
    1 | 0
    Фильмы [HD 720p, 1080p] (Хороший звук DUB, MVO) [ 7.09 GB ] Любой ценой / Hell or High Water [2016 BDRip 720p от _denis_100 | NNNB] DUB + 3xAVO + Original + Sub _denis_100 Скачать
    1 | 0
    Фильмы (Blu-ray, BD-Remux, HDDVD) [ 29.24 GB ] Любой ценой / Hell or High Water [2016 BD Remux 1080p] [] DUB+AVO bober100 Скачать
    1 | 0
    Фильмы [HD 720p, 1080p] (Хороший звук DUB, MVO) [ 5.76 GB ] Любой ценой / Hell or High Water [2016 BDRip 720p] DUB AVO potroks Скачать
    2 | 0
    Фильмы 2016 [DVDrip, WEB-DLRip, HDrip] (DUB, MVO) [ 1.46 GB ] Любой ценой / Hell or High Water [2016 BDRip] - [] Twi7ter Скачать
    1 | 0

    28-11-2019 20:33  

    Отключить всю рекламу на сайте

    21-09-2016 20:48 Любой ценой Скачать торрент  

    рейтинг неплох, а фильм как?pb.wtf



    23-09-2016 13:21 Любой ценой Скачать торрент  

    saidfatal писал(а):

    рейтинг неплох, а фильм как?

    фильм хорош !pb.wtf



    25-09-2016 07:12 Любой ценой Скачать торрент  

    Думаю стоит посмотреть, спасибо за фильм)pb.wtf



    26-09-2016 21:50 Любой ценой Скачать торрент  

    Отличный фильм.pb.wtf



    13-10-2016 11:05 Любой ценой Скачать торрент  

    Неплохой фильм для разового просмотра.pb.wtf



    28-10-2016 21:44 Любой ценой Скачать торрент  

    Отличный фильм!pb.wtf



      Дорогой пользователь! Огромная просьба, поблагодарите релизера, оцените раздачу и оставьте свои комментарий, если Вы скачали Любой ценой через торрент бесплатно! Внесите свою лепту в развитие PiratBit!
      Комментировать посты могут только пользователи прошедшие не сложную регистрацию
      Показать сообщения:    

      Любой ценой через торрент
      Скачать бесплатно Любой ценой
      Любой ценой скачать торрент
      Любой ценой смотреть онлайн
      Cкачать фильм Любой ценой бесплатно
      Любой ценой скачать торрент в хорошем качестве
      Любой ценой смотреть онлайн бесплатно в хорошем качестве


      Вы не можете начинать темы
      Вы не можете отвечать на сообщения
      Вы не можете редактировать свои сообщения
      Вы не можете удалять свои сообщения
      Вы не можете голосовать в опросах
      Вы не можете прикреплять файлы к сообщениям
      Вы можете скачивать файлы