Мега распродажа FORZA HORIZON 4 ULTIMATE+ВСЕ DLC+ОНЛАЙН всего за 499р. 349 руб. (супер цена). Внимание количество ограничено!!!

iTunes

1+1

iTunes

мы

iTunes

1

1 сезон

Чернобыль

1 сезон

Ральф против интернета

Лицензия

ПШазам

8 сезон

Игра престолов

Лицензия

30
pack

ВАЖНО

!!Акция!!

Alien_RageХит недели

RePack

Resident Evil 21

ИГРА 18+

pack

RePack

Metro:Exodus

!!Акция!!

Alien_Rage

RePack

fifa19

RePack

Assassins Creed: Odyssey

RePack

NEED FOR SPEED™ PAYBACK

3 сезон

9 сезон

Бесстыжие 9 сезон

Все сериалы

все сериалы на PB.wtf

RePack

FAR CRY 5
Ребята, катастрофически не хватает 2730р. для оплаты серверов за ИЮНЬ (всвязи с блокировками трафик упал в 3 раза), 1-2р., выручайте.
  

Поедая Рауля / Eating Raoul (Пол Бартел) [1982 г., комедия, HDRip] VO pb.wtf

Поедая Рауля через торрент pb.wtf

Размер: 1.45 GB | Добавлен: 2 года 9 мес. назад | Торрент скачан:12 раз
Скачать  

22-09-2016 17:12 Поедая Рауля Скачать торрент  

Поедая Рауля / Eating Raoul
Год выпуска: 1982
Страна: США
Жанр: комедия
Продолжительность: 01:23:31
Перевод: Любительский (одноголосый) [Дмитрий Лопухов]

Режиссер: Пол Бартел

Премьера в мире: 24 марта 1982

rating

В ролях: Пол Бартел, Мэри Воронов, Роберт Бельтран, Линн Хобарт, Ричард Пол, Марк Вудс, Джон Ширин, Дарси Пуллиам, Бен Хэллер

Описание: Действие происходит в Лос-Анджелесе, а сюжет рассказывает о дружной супружеской паре, Мэри и Поле Блэнде, которые мечтают когда-нибудь открыть свой собственный ресторан для гурманов. Так как Мэри работает медсестрой, а Пола только что выгнали с работы в винном магазине, мечта вскоре отходит от реализации дальше и дальше. Но однако раздается стук судьбы, и пьяный вваливается в их квартиру и начинает приставать к Мэри. Пол убивает нарушителя и обнаруживает при нем большую сумму денег наличными. Воодушевленная пара дает обьявление в газете, придуманное так, чтобы заманивать жертвы к себе домой, где они будут их убивать, а деньги оставлять себе.

Качество: HDRip
Формат: AVI
Видео кодек: XviD
Аудио кодек: AC3
Видео: XviD, 2085 Кбит/с, 720x400, 23.976 кадр/с
Аудио#1: AC3, 2 ch, 192 Кбит/с, 48 kHz | Русский
Аудио#2: АС3, 1 ch, 192 Кбит/с, 48 kHz | Английский
Релиз от: Koenig
Общее
Полное имя : Eating.Raoul.1982.HDRip.avi
Формат : AVI
Формат/Информация : Audio Video Interleave
Размер файла : 1,45 Гбайт
Продолжительность : 1 ч. 23 м.
Общий поток : 2484 Кбит/сек
Программа кодирования : VirtualDubMod 1.5.10.2 (build 2540/release)
Библиотека кодирования : VirtualDubMod build 2540/release

Видео
Идентификатор : 0
Формат : MPEG-4 Visual
Профиль формата : Advanced Simple@L5
Параметр BVOP формата : 1
Параметр QPel формата : Нет
Параметр GMC формата : Без точки перехода
Параметр матрицы формата : Выборочная
Идентификатор кодека : XVID
Идентификатор кодека/Подсказка : XviD
Продолжительность : 1 ч. 23 м.
Битрейт : 2085 Кбит/сек
Ширина : 720 пикселей
Высота : 400 пикселей
Соотношение сторон : 16:9
Частота кадров : 23,976 (23976/1000) кадра/сек
Цветовое пространство : YUV
Субдискретизация насыщенности : 4:2:0
Битовая глубина : 8 бит
Тип развёртки : Прогрессивная
Метод сжатия : С потерями
Бит/(Пиксели*Кадры) : 0.302
Размер потока : 1,22 Гбайт (84%)
Библиотека кодирования : XviD 73

Аудио #1
Идентификатор : 1
Формат : AC-3
Формат/Информация : Audio Coding 3
Расширение режима : CM (complete main)
Параметр Endianness формата : Big
Идентификатор кодека : 2000
Продолжительность : 1 ч. 23 м.
Вид битрейта : Постоянный
Битрейт : 192 Кбит/сек
Каналы : 2 канала
Расположение каналов : Front: L R
Частота : 48,0 КГц
Частота кадров : 31,250 кадров/сек (1536 spf)
Метод сжатия : С потерями
Задержка видео : 5 мс.
Размер потока : 115 Мбайт (8%)
Выравнивание : Разделение по промежуткам
Продолжительность промежутка : 42 мс. (1,00 видеокадр)
Время предзагрузки промежутка : 500 мс.

Аудио #2
Идентификатор : 2
Формат : AC-3
Формат/Информация : Audio Coding 3
Расширение режима : CM (complete main)
Параметр Endianness формата : Big
Идентификатор кодека : 2000
Продолжительность : 1 ч. 23 м.
Вид битрейта : Постоянный
Битрейт : 192 Кбит/сек
Каналы : 1 канал
Расположение каналов : Front: C
Частота : 48,0 КГц
Частота кадров : 31,250 кадров/сек (1536 spf)
Метод сжатия : С потерями
Задержка видео : 5 мс.
Размер потока : 115 Мбайт (8%)
Выравнивание : Разделение по промежуткам
Продолжительность промежутка : 42 мс. (1,00 видеокадр)
Время предзагрузки промежутка : 500 мс.

pb.wtf



Скачать Поедая Рауля через торрент http://pic1.kartinco.top/images/10/o4hy8.jpg Скачать фильм Поедая Рауля через торрент бесплантно в хорошем качестве Описание: Действие происходит в Лос-Анджелесе, а сюжет рассказывает о дружной супружеской паре, Мэри и Поле Блэнде, которые мечтают ... 10 10 2
Торрент: Зарегистрирован [2016-09-22 17:12] · скачан: 12 раз
Статус: √ проверено
Размер: 1.45 GB
Как cкачать? Как скачать Поедая Рауля через торрент | qTorrent


>> Регистрируемся здесь <<






Отзывы и комментарии о схеме читаем и пишем здесь: ---> Отзывы и комментарии о схеме

Новые благодарочки в телеграм довольных пользователей:
скриншот   скриншот   скриншот   скриншот   скриншот

22-09-2016 19:05 Поедая Рауля Скачать торрент  

Какой-то "красный отель".pb.wtf



    Дорогой пользователь! Огромная просьба, поблагодарите релизера, оцените раздачу и оставьте свои комментарий, если Вы скачали Поедая Рауля через торрент бесплатно! Внесите свою лепту в развитие PiratBit!
    Комментировать посты могут только пользователи прошедшие не сложную регистрацию
    Показать сообщения:    

    Поедая Рауля через торрент
    Скачать бесплатно Поедая Рауля
    Поедая Рауля скачать торрент
    Поедая Рауля смотреть онлайн
    Cкачать фильм Поедая Рауля бесплатно
    Поедая Рауля скачать торрент в хорошем качестве
    Поедая Рауля смотреть онлайн бесплатно в хорошем качестве


    Вы не можете начинать темы
    Вы не можете отвечать на сообщения
    Вы не можете редактировать свои сообщения
    Вы не можете удалять свои сообщения
    Вы не можете голосовать в опросах
    Вы не можете прикреплять файлы к сообщениям
    Вы можете скачивать файлы