Death Stranding+DLC+АВТОАКТИВАЦИЯ

iTunes

iTunes

iTunes

1

iTunes

iTunes

iTunes

iTunes

iTunes

30
pack

$ от Little Big

ВАЖНО

!!Акция!!

Alien_RageХит недели

RePack

Resident Evil 21

ИГРА 18+

pack

RePack

jed

!!Акция!!

Alien_Rage

RePack

fifa19

RePack

Assassins Creed: Odyssey

RePack

NEED FOR SPEED™ PAYBACK

4 сезон

9 сезон

Бесстыжие 9 сезон

Все сериалы

все сериалы на PB.wtf

RePack

FAR CRY 5
  

Уловка 22 / Catch-22 (Майк Николс) [1970 г., драма, комедия, военный, WEB-DLRip 720p] 2xMVO, DVO pb.wtf

Уловка 22 через торрент pb.wtf

Размер: 5.07 GB | Добавлен: 3 года 9 мес. назад | Торрент скачан:64 раза
Скачать  

22-09-2016 17:54 Уловка 22 Скачать торрент  

Уловка 22 / Catch-22
Год выпуска: 1970
Страна: США
Жанр: драма, комедия, военный
Продолжительность: 02:01:41
Перевод: Профессиональный (многоголосый), профессиональный (двухголосый)
Субтитры: Английские

Режиссер: Майк Николс

Бюджет: $18 000 000
Премьера в мире: 24 июня 1970

rating

В ролях: Алан Аркин, Мартин Болсам, Ричард Бенджамин, Арт Гарфанкел, Джек Гилфорд, Бак Хенри, Орсон Уэллс, Боб Ньюхарт, Энтони Перкинс, Пола Прентисс, Мартин Шин, Джон Войт, Боб Бэлабэн, Сюзанна Бентон, Норман Фелл, Чарльз Гродин, Остин Пендлтон, Питер Бонерц, Йон Коркес, Джон Брент

Описание: На военном аэродроме царит полный хаос и настоящий сумасшедший дом. Это оказывается как нельзя на руку, ловкому капитану Йоссариану, который больше не желает воевать и полон решимости прекратить свое участие в боевых вылетах...

Качество: WEB-DLRip 720p
Формат: MKV
Видео кодек: x264
Аудио кодек: AC3
Видео: MPEG-4 AVC, 4540 Кбит/с, 1280x536, 23.976 кадр/с
Аудио#1: AC3, 6 ch, 448 Кбит/с, 48 kHz | Профессиональный многоголосый (SomeWax)
Аудио#2: AC3, 6 ch, 448 Кбит/с, 48 kHz | Профессиональный многоголосый (DVD Магия)
Аудио#3: AC3, 6 ch, 384 Кбит/с, 48 kHz | Профессиональный двухголосый (iTunes Russia)
Аудио#4: AAC, 2 ch, 137 Кбит/с, 48 kHz | Английский
Релиз от: Koenig
Общее
Уникальный идентификатор : 246714756890971469041564214511845446542 (0xB99B88A73D0115DC86CF947BD8CF138E)
Полное имя : Catch-22.1970.WEB-DLRip.720p.mkv
Формат : Matroska
Версия формата : Version 4 / Version 2
Размер файла : 5,07 Гбайт
Продолжительность : 2 ч. 1 м.
Общий поток : 5961 Кбит/сек
Название фильма : Catch-22
Дата кодирования : UTC 2016-09-22 08:31:55
Программа кодирования : mkvmerge v9.2.0 ('Photograph') 32bit
Библиотека кодирования : libebml v1.3.3 + libmatroska v1.4.4
Обложка : Yes
Attachments : cover.jpg
DIRECTOR : Mike Nichols
RELEASE : Koenig

Видео
Идентификатор : 1
Формат : AVC
Формат/Информация : Advanced Video Codec
Профиль формата : High@L4.1
Параметр CABAC формата : Да
Параметр ReFrames формата : 9 кадров
Идентификатор кодека : V_MPEG4/ISO/AVC
Продолжительность : 2 ч. 1 м.
Битрейт : 4540 Кбит/сек
Ширина : 1280 пикселей
Высота : 536 пикселей
Соотношение сторон : 2,40:1
Режим частоты кадров : Постоянный
Частота кадров : 23,976 (24000/1001) кадра/сек
Цветовое пространство : YUV
Субдискретизация насыщенности : 4:2:0
Битовая глубина : 8 бит
Тип развёртки : Прогрессивная
Бит/(Пиксели*Кадры) : 0.276
Размер потока : 3,86 Гбайт (76%)
Библиотека кодирования : x264 core 148 r2692 64f4e24
Настройки программы : cabac=1 / ref=9 / deblock=1:-3:-3 / analyse=0x3:0x133 / me=umh / subme=10 / psy=1 / psy_rd=1.00:0.00 / mixed_ref=1 / me_range=32 / chroma_me=1 / trellis=2 / 8x8dct=1 / cqm=0 / deadzone=21,11 / fast_pskip=0 / chroma_qp_offset=-2 / threads=3 / lookahead_threads=1 / sliced_threads=0 / nr=0 / decimate=1 / interlaced=0 / bluray_compat=0 / constrained_intra=0 / bframes=12 / b_pyramid=2 / b_adapt=2 / b_bias=0 / direct=3 / weightb=1 / open_gop=0 / weightp=2 / keyint=240 / keyint_min=23 / scenecut=40 / intra_refresh=0 / rc_lookahead=40 / rc=2pass / mbtree=1 / bitrate=4540 / ratetol=1.0 / qcomp=0.60 / qpmin=10 / qpmax=51 / qpstep=4 / cplxblur=20.0 / qblur=0.5 / vbv_maxrate=50000 / vbv_bufsize=62500 / nal_hrd=none / filler=0 / ip_ratio=1.40 / aq=1:1.00
Default : Да
Forced : Нет

Аудио #1
Идентификатор : 2
Формат : AC-3
Формат/Информация : Audio Coding 3
Расширение режима : CM (complete main)
Параметр Endianness формата : Big
Идентификатор кодека : A_AC3
Продолжительность : 2 ч. 1 м.
Вид битрейта : Постоянный
Битрейт : 448 Кбит/сек
Каналы : 6 каналов
Расположение каналов : Front: L C R, Side: L R, LFE
Частота : 48,0 КГц
Частота кадров : 31,250 кадров/сек (1536 spf)
Метод сжатия : С потерями
Размер потока : 390 Мбайт (8%)
Заголовок : MVO - SomeWax
Язык : Russian
Default : Да
Forced : Нет

Аудио #2
Идентификатор : 3
Формат : AC-3
Формат/Информация : Audio Coding 3
Расширение режима : CM (complete main)
Параметр Endianness формата : Big
Идентификатор кодека : A_AC3
Продолжительность : 2 ч. 1 м.
Вид битрейта : Постоянный
Битрейт : 448 Кбит/сек
Каналы : 6 каналов
Расположение каналов : Front: L C R, Side: L R, LFE
Частота : 48,0 КГц
Частота кадров : 31,250 кадров/сек (1536 spf)
Метод сжатия : С потерями
Размер потока : 390 Мбайт (8%)
Заголовок : MVO - DVD Магия
Язык : Russian
Default : Нет
Forced : Нет

Аудио #3
Идентификатор : 4
Формат : AC-3
Формат/Информация : Audio Coding 3
Расширение режима : CM (complete main)
Параметр Endianness формата : Big
Идентификатор кодека : A_AC3
Продолжительность : 2 ч. 1 м.
Вид битрейта : Постоянный
Битрейт : 384 Кбит/сек
Каналы : 6 каналов
Расположение каналов : Front: L C R, Side: L R, LFE
Частота : 48,0 КГц
Частота кадров : 31,250 кадров/сек (1536 spf)
Метод сжатия : С потерями
Размер потока : 334 Мбайт (6%)
Заголовок : DVO - iTunes Russia
Язык : Russian
Default : Нет
Forced : Нет

Аудио #4
Идентификатор : 5
Формат : AAC
Формат/Информация : Advanced Audio Codec
Профиль формата : LC
Идентификатор кодека : A_AAC
Продолжительность : 2 ч. 1 м.
Битрейт : 137 Кбит/сек
Каналы : 2 канала
Расположение каналов : Front: L R
Частота : 48,0 КГц
Частота кадров : 46,875 кадров/сек (1024 spf)
Метод сжатия : С потерями
Размер потока : 119 Мбайт (2%)
Заголовок : Original
Язык : English
Default : Нет
Forced : Нет

Текст
Идентификатор : 6
Формат : UTF-8
Идентификатор кодека : S_TEXT/UTF8
Идентификатор кодека/Информация : UTF-8 Plain Text
Продолжительность : 1 ч. 59 м.
Битрейт : 63 бит/сек
Count of elements : 2210
Размер потока : 55,5 Кбайт (0%)
Язык : English
Default : Да
Forced : Нет

Меню
00:00:00.000 : en:"Help the Bombardier"
00:07:42.420 : en:Persecution Complex
00:14:27.408 : en:Milo Minderbinder
00:21:14.856 : en:Captain Yossarian
00:27:49.834 : en:Major Major
00:31:54.954 : en:Chaplain Tappman
00:36:54.837 : en:Colonel Cathcart
00:39:45.091 : en:Nurse Duckett
00:41:50.549 : en:General Dreedle
00:53:51.186 : en:Out of Uniform
00:56:25.006 : en:Luciana
01:00:24.370 : en:Hungry Joe
01:04:52.346 : en:Snowden's Funeral
01:09:39.758 : en:Shameful Opportunist
01:14:43.061 : en:Orr
01:18:39.256 : en:Doc Daneeka
01:24:32.317 : en:Dobbs
01:31:39.160 : en:After Curfew
01:38:56.639 : en:Nately's Whore
01:45:30.991 : en:Aarfy Aardvark
01:47:31.945 : en:One Last Catch
01:54:10.009 : en:End Credits

pb.wtf



Скачать Уловка 22 через торрент http://pic1.kartinco.top/images/10/yf2iy.jpg Скачать фильм Уловка 22 через торрент бесплантно в хорошем качестве Описание: На военном аэродроме царит полный хаос и настоящий сумасшедший дом. Это оказывается как нельзя на руку, ловкому капитану ... 10 10 3
Info! Серебряная раздача, засчитывается только 50% скачанного.
Торрент: Зарегистрирован [2016-09-22 17:54] · скачан: 64 раз
Статус: √ проверено
Размер: 5.07 GB
Как cкачать? Как скачать Уловка 22 через торрент | qTorrent

28-11-2019 20:33  

Отключить всю рекламу на сайте

    Дорогой пользователь! Огромная просьба, поблагодарите релизера, оцените раздачу и оставьте свои комментарий, если Вы скачали Уловка 22 через торрент бесплатно! Внесите свою лепту в развитие PiratBit!
    Комментировать посты могут только пользователи прошедшие не сложную регистрацию
    Показать сообщения:    

    Уловка 22 через торрент
    Скачать бесплатно Уловка 22
    Уловка 22 скачать торрент
    Уловка 22 смотреть онлайн
    Cкачать фильм Уловка 22 бесплатно
    Уловка 22 скачать торрент в хорошем качестве
    Уловка 22 смотреть онлайн бесплатно в хорошем качестве


    Вы не можете начинать темы
    Вы не можете отвечать на сообщения
    Вы не можете редактировать свои сообщения
    Вы не можете удалять свои сообщения
    Вы не можете голосовать в опросах
    Вы не можете прикреплять файлы к сообщениям
    Вы можете скачивать файлы