2 сезон

iTunes

1 сезон

1

iTunes

iTunes

iTunes

1 сезон

RePack

30

ИГРА 18+

pack

ВАЖНО

!!Акция!!

Alien_RageХит недели

RePack

MK11
pack

Забери бонус

RePack

jed

!!Акция!!

Alien_Rage

RePack

fifa19

RePack

Assassins Creed: Odyssey

RePack

NEED FOR SPEED™ PAYBACK

4 сезон

9 сезон

Бесстыжие 9 сезон

Все сериалы

все сериалы на PB.wtf

RePack

FAR CRY 5
  

Преступления сладострастия / Crimenes de Lujuria (Вальтер Дёнер) [2011, триллер, BDRip 720p by msltel] MVO pb.wtf

Преступления сладострастия через торрент pb.wtf

Размер: 3.99 GB | Добавлен: 4 года 1 мес. назад | Торрент скачан:48 раз
Скачать  

23-09-2016 06:34 Преступления сладострастия Скачать торрент  

Название: Преступления сладострастия
Оригинальное название: Crimenes de Lujuria
Год выпуска: 2011
Страна: Мексика
Жанр: триллер
Продолжительность: 01:29:49
Перевод: профессиональный многоголосый

Режиссёр: Вальтер Дёнер

В ролях: Плутарко Аса, Мария де ла Фуэнте, Хавьер Диас Дуэньяс, Алехандро Рельмонте, Эмилио Герерро, Алехандра Амброси, Аурора Хиль, Артуро Эчеверриа

Описание: Что связывает Ребекку и Артуро? Разумеется, всепоглощающая страсть. Возможно, любовь. Но прежде всего - удачное стечение обстоятельств. Ребекку привлекает перспектива избавиться от опостылевшего мужа и приобрести нового любовника. Артуро жаждет получить не столько девушку, сколько её деньги. Проще сказать, чем сделать...



Качество: BDRip 720p Сравнение с исходником
Формат: MKV
Видео: MPEG-4 AVC, 5519 Кбит/с, 1280х720, 24.000 кадр/с
Аудио 1: русский, AC3, 384 kbps, 6 ch, 48 kHz [профессиональный многоголосый, лицензия]
Аудио 2: испанский, AC3, 448 kbps, 6 ch, 48 kHz [оригинал]
Субтитры 1: русские
Субтитры 2: английские
Общее
Уникальный идентификатор : 210994945253324942828815862818019316000 (0x9EBC25F8274DDD7F857730AEF1AD9120)
Полное имя : D:\Video\Преступления сладострастия.2011.BDRip.720p.mkv
Формат : Matroska
Версия формата : Version 4 / Version 2
Размер файла : 3,99 Гбайт
Продолжительность : 1 ч. 29 м.
Общий поток : 6354 Кбит/сек
Дата кодирования : UTC 2016-09-23 05:17:20
Программа кодирования : mkvmerge v8.2.0 ('World of Adventure') 64bit
Библиотека кодирования : libebml v1.3.1 + libmatroska v1.4.2

Видео
Идентификатор : 1
Формат : AVC
Формат/Информация : Advanced Video Codec
Профиль формата : High@L4.1
Параметр CABAC формата : Да
Параметр ReFrames формата : 9 кадров
Идентификатор кодека : V_MPEG4/ISO/AVC
Продолжительность : 1 ч. 29 м.
Битрейт : 5519 Кбит/сек
Ширина : 1280 пикселей
Высота : 720 пикселей
Соотношение сторон : 16:9
Режим частоты кадров : Постоянный
Частота кадров : 24,000 кадра/сек
Цветовое пространство : YUV
Субдискретизация насыщенности : 4:2:0
Битовая глубина : 8 бит
Тип развёртки : Прогрессивная
Бит/(Пиксели*Кадры) : 0.250
Размер потока : 3,46 Гбайт (87%)
Библиотека кодирования : x264 core 146 r2538 121396c
Настройки программы : cabac=1 / ref=9 / deblock=1:-1:-1 / analyse=0x3:0x113 / me=umh / subme=10 / psy=1 / psy_rd=1.00:0.15 / mixed_ref=1 / me_range=32 / chroma_me=1 / trellis=2 / 8x8dct=1 / cqm=0 / deadzone=21,11 / fast_pskip=1 / chroma_qp_offset=-3 / threads=6 / lookahead_threads=1 / sliced_threads=0 / nr=0 / decimate=1 / interlaced=0 / bluray_compat=0 / constrained_intra=0 / bframes=8 / b_pyramid=2 / b_adapt=2 / b_bias=0 / direct=1 / weightb=1 / open_gop=0 / weightp=2 / keyint=230 / keyint_min=23 / scenecut=40 / intra_refresh=0 / rc_lookahead=40 / rc=crf / mbtree=0 / crf=17.0 / qcomp=0.60 / qpmin=0 / qpmax=69 / qpstep=4 / vbv_maxrate=40000 / vbv_bufsize=50000 / crf_max=0.0 / nal_hrd=none / filler=0 / ip_ratio=1.40 / pb_ratio=1.30 / aq=1:1.00
Язык : Spanish
Default : Да
Forced : Нет

Аудио #1
Идентификатор : 2
Формат : AC-3
Формат/Информация : Audio Coding 3
Расширение режима : CM (complete main)
Параметр Endianness формата : Big
Идентификатор кодека : A_AC3
Продолжительность : 1 ч. 29 м.
Вид битрейта : Постоянный
Битрейт : 384 Кбит/сек
Каналы : 6 каналов
Расположение каналов : Front: L C R, Side: L R, LFE
Частота : 48,0 КГц
Частота кадров : 31,250 кадров/сек (1536 spf)
Метод сжатия : С потерями
Размер потока : 247 Мбайт (6%)
Заголовок : MVO (Лицензия)
Язык : Russian
Default : Да
Forced : Нет

Аудио #2
Идентификатор : 3
Формат : AC-3
Формат/Информация : Audio Coding 3
Расширение режима : CM (complete main)
Параметр Endianness формата : Big
Идентификатор кодека : A_AC3
Продолжительность : 1 ч. 29 м.
Вид битрейта : Постоянный
Битрейт : 448 Кбит/сек
Каналы : 6 каналов
Расположение каналов : Front: L C R, Side: L R, LFE
Частота : 48,0 КГц
Частота кадров : 31,250 кадров/сек (1536 spf)
Метод сжатия : С потерями
Размер потока : 288 Мбайт (7%)
Заголовок : original
Язык : Spanish
Default : Нет
Forced : Нет

Текст #1
Идентификатор : 4
Формат : UTF-8
Идентификатор кодека : S_TEXT/UTF8
Идентификатор кодека/Информация : UTF-8 Plain Text
Продолжительность : 1 ч. 28 м.
Битрейт : 81 бит/сек
Count of elements : 996
Размер потока : 52,5 Кбайт (0%)
Заголовок : русские
Язык : Russian
Default : Нет
Forced : Нет

Текст #2
Идентификатор : 5
Формат : UTF-8
Идентификатор кодека : S_TEXT/UTF8
Идентификатор кодека/Информация : UTF-8 Plain Text
Продолжительность : 1 ч. 28 м.
Битрейт : 52 бит/сек
Count of elements : 1293
Размер потока : 34,2 Кбайт (0%)
Заголовок : английские
Язык : English
Default : Нет
Forced : Нет
pb.wtf



Скачать Преступления сладострастия через торрент http://s019.radikal.ru/i613/1609/42/43042a1d6d5e.jpg Скачать фильм Преступления сладострастия через торрент бесплантно в хорошем качестве Описание: Что связывает Ребекку и Артуро? Разумеется, всепоглощающая страсть. Возможно, любовь. Но прежде всего - удачное стечение ... 10 10 5
Info! Золотая раздача, скачанное не засчитывается.
Торрент: Зарегистрирован [2016-09-23 06:34] · скачан: 48 раз
Статус: √ проверено
Размер: 3.99 GB
Как cкачать? Как скачать Преступления сладострастия через торрент | qTorrent

% Раздел Тема Автор DL S | L
Фильмы [HD 720p, 1080p] (Хороший звук DUB, MVO) [ 9.63 GB ] Преступления сладострастия / Crimenes de Lujuria [2011 BDRip 1080p by msltel] MVO msltel Скачать
1 | 0
Фильмы 2011 [ 1.37 GB ] Преступления сладострастия / Crimenes de Lujuria [2011 HDRip] MVO / лицензия Ворон Скачать
1 | 0

28-11-2019 20:33  

Отключить всю рекламу на сайте

    Дорогой пользователь! Огромная просьба, поблагодарите релизера, оцените раздачу и оставьте свои комментарий, если Вы скачали Преступления сладострастия через торрент бесплатно! Внесите свою лепту в развитие PiratBit!
    Комментировать посты могут только пользователи прошедшие не сложную регистрацию
    Показать сообщения:    

    Преступления сладострастия через торрент
    Скачать бесплатно Преступления сладострастия
    Преступления сладострастия скачать торрент
    Преступления сладострастия смотреть онлайн
    Cкачать фильм Преступления сладострастия бесплатно
    Преступления сладострастия скачать торрент в хорошем качестве
    Преступления сладострастия смотреть онлайн бесплатно в хорошем качестве


    Вы не можете начинать темы
    Вы не можете отвечать на сообщения
    Вы не можете редактировать свои сообщения
    Вы не можете удалять свои сообщения
    Вы не можете голосовать в опросах
    Вы не можете прикреплять файлы к сообщениям
    Вы можете скачивать файлы