Ссылка на приватное зеркало нашего сайта всего за 1$. Внимание количество ограничено!!!

2 сезон

iTunes

1 сезон

1

iTunes

iTunes

iTunes

1 сезон

RePack

30

ИГРА 18+

pack

ВАЖНО

!!Акция!!

Alien_RageХит недели

RePack

MK11
pack

Забери бонус

RePack

jed

!!Акция!!

Alien_Rage

RePack

fifa19

RePack

Assassins Creed: Odyssey

RePack

NEED FOR SPEED™ PAYBACK

4 сезон

9 сезон

Бесстыжие 9 сезон

Все сериалы

все сериалы на PB.wtf

RePack

FAR CRY 5
  

Человек – швейцарский нож / Swiss Army Man (Дэн Кван, Дэниэл Шайнерт) [2016, фэнтези, драма, мелодрама, BDRip 720p] Дубляж - [Лицензия / iTunes] pb.wtf

Человек – швейцарский нож через торрент pb.wtf

Размер: 5.71 GB | Добавлен: 4 года 1 мес. назад | Торрент скачан:1211 раз
Скачать  

23-09-2016 21:29 Человек – швейцарский нож Скачать торрент  


Человек – швейцарский нож / Swiss Army Man
««Труп познается в беде»»

ИНФОРМАЦИЯ:
Год выпуска:2016
Страна: США
Жанр: фэнтези, драма, мелодрама, комедия, приключения

Продолжительность: 01:37:23
Перевод: Дубляж - [Лицензия / iTunes]
Субтитры: английские,
Режиссер: Дэн Кван, Дэниэл Шайнерт

В Ролях:


Пол Дано (Hank), Дэниэл Рэдклифф (Manny), Мэри Элизабет Уинстэд (Sarah), Антония Риберо (Crissie), Тимоти Йолих (Preston), Ричард Гросс (Hanks Dad), Марика Кастил (Reporter), Энди Халл (Cameraman), Аарон Маршалл (Officer #1), Шейн Каррут (Coroner), Джессика Харбек (Lady Cop)

ОПИСАНИЕ:
Оказавшись на необитаемом острове, Хэнк уже был готов потерять всякую надежду, но все меняется, когда на берегу он находит труп по имени Мэнни.

  • Мировая премьера:22 января 2016

    ТЕХ.ДАННЫЕ:
    Качество: BDRip 720p
    Формат: MKV
    Видео: AVC, 1280x534 (2.40:1), 7193 kbps, 23,976 fps, 0,439 bpp
    Аудио №1: русский / AC3 / 5.1 / 48 kHz / 384 kbps / ||
    Аудио №2: английский / AC3 / 5.1 / 48 kHz / 640 kbps /
    Навигация по главам: есть


    General
    Unique ID : 209711175830995975210390936258210824088 (0x9DC4E740041AF17CA955337786E1FF98)
    Complete name : G:\Торенты\Раздачи\Игры\Swiss.Army.Man.2016.DRip.720p.mkv
    Format : Matroska
    Format version : Version 4 / Version 2
    File size : 5.70 GiB
    Duration : 1 h 37 min
    Overall bit rate : 8 384 kb/s
    Encoded date : UTC 2016-09-23 20:38:46
    Writing application : mkvmerge v8.3.0 ('Over the Horizon') 64bit
    Writing library : libebml v1.3.1 + libmatroska v1.4.2
    IsTruncated : Yes

    Video
    ID : 1
    Format : AVC
    Format/Info : Advanced Video Codec
    Format profile : High@L4.1
    Format settings, CABAC : Yes
    Format settings, ReFrames : 12 frames
    Codec ID : V_MPEG4/ISO/AVC
    Duration : 1 h 37 min
    Bit rate : 7 193 kb/s
    Width : 1 280 pixels
    Height : 534 pixels
    Display aspect ratio : 2.40:1
    Frame rate mode : Constant
    Frame rate : 23.976 (24000/1001) FPS
    Color space : YUV
    Chroma subsampling : 4:2:0
    Bit depth : 8 bits
    Scan type : Progressive
    Bits/(Pixel*Frame) : 0.439
    Stream size : 4.89 GiB (86%)
    Writing library : x264 core 148 r2705 3f5ed56
    Encoding settings : cabac=1 / ref=12 / deblock=1:-3:-3 / analyse=0x3:0x133 / me=tesa / subme=11 / psy=1 / psy_rd=1.00:0.00 / mixed_ref=1 / me_range=24 / chroma_me=1 / trellis=2 / 8x8dct=1 / cqm=0 / deadzone=21,11 / fast_pskip=0 / chroma_qp_offset=-2 / threads=12 / lookahead_threads=3 / sliced_threads=0 / nr=0 / decimate=1 / interlaced=0 / bluray_compat=0 / constrained_intra=0 / bframes=10 / b_pyramid=2 / b_adapt=2 / b_bias=0 / direct=3 / weightb=1 / open_gop=0 / weightp=2 / keyint=240 / keyint_min=23 / scenecut=40 / intra_refresh=0 / rc_lookahead=60 / rc=crf / mbtree=0 / crf=16.6 / qcomp=0.73 / qpmin=0 / qpmax=69 / qpstep=4 / vbv_maxrate=62500 / vbv_bufsize=78125 / crf_max=0.0 / nal_hrd=none / filler=0 / ip_ratio=1.35 / pb_ratio=1.18 / aq=1:0.80
    Language : English
    Default : Yes
    Forced : No

    Audio #1
    ID : 2
    Format : AC-3
    Format/Info : Audio Coding 3
    Mode extension : CM (complete main)
    Format settings, Endianness : Big
    Codec ID : A_AC3
    Duration : 1 h 37 min
    Bit rate mode : Constant
    Bit rate : 384 kb/s
    Channel(s) : 6 channels
    Channel positions : Front: L C R, Side: L R, LFE
    Sampling rate : 48.0 kHz
    Frame rate : 31.250 FPS (1536 spf)
    Compression mode : Lossy
    Stream size : 267 MiB (5%)
    Language : Russian
    Default : Yes
    Forced : No

    Audio #2
    ID : 3
    Format : AC-3
    Format/Info : Audio Coding 3
    Mode extension : CM (complete main)
    Format settings, Endianness : Big
    Codec ID : A_AC3
    Duration : 1 h 37 min
    Bit rate mode : Constant
    Bit rate : 640 kb/s
    Channel(s) : 6 channels
    Channel positions : Front: L C R, Side: L R, LFE
    Sampling rate : 48.0 kHz
    Frame rate : 31.250 FPS (1536 spf)
    Compression mode : Lossy
    Stream size : 446 MiB (8%)
    Language : English
    Default : No
    Forced : No

    Text
    ID : 4
    Format : UTF-8
    Codec ID : S_TEXT/UTF8
    Codec ID/Info : UTF-8 Plain Text
    Language : English
    Default : No
    Forced : No

    Menu
    00:00:00.000 : en:00:00:00.000
    00:08:47.902 : en:00:08:47.902
    00:13:14.335 : en:00:13:14.335
    00:17:42.228 : en:00:17:42.228
    00:25:11.593 : en:00:25:11.593
    00:32:46.256 : en:00:32:46.256
    00:37:17.068 : en:00:37:17.068
    00:44:39.260 : en:00:44:39.260
    00:51:44.101 : en:00:51:44.101
    00:57:57.224 : en:00:57:57.224
    01:03:19.337 : en:01:03:19.337
    01:06:17.140 : en:01:06:17.140
    01:10:05.535 : en:01:10:05.535
    01:16:40.679 : en:01:16:40.679
    01:22:10.092 : en:01:22:10.092
    01:27:31.788 : en:01:27:31.788
    Скриншоты:

    © Оформление by .::Ворон::.
    pb.wtf



  • Скачать Человек – швейцарский нож через торрент http://pic.kartinco.top/images/6/ordi9.jpg Скачать фильм Человек – швейцарский нож через торрент бесплантно в хорошем качестве Е:Оказавшись на необитаемом острове, Хэнк уже был готов потерять всякую надежду, но все меняется, когда на берегу он находит труп по имени ... 9.5 10 23
    Info! Золотая раздача, скачанное не засчитывается.
    Торрент: Зарегистрирован [2016-09-23 21:29] · скачан: 1 211 раз
    Статус: √ проверено
    Размер: 5.71 GB
    Как cкачать? Как скачать Человек – швейцарский нож через торрент | qTorrent

    % Раздел Тема Автор DL S | L
    Фильмы 2016 [DVDrip, WEB-DLRip, HDrip] (DUB, MVO) [ 1.46 GB ] Человек – швейцарский нож / Swiss Army Man [2016 мюзикл BDRip] - [] Twi7ter Скачать
    1 | 0
    Фильмы [HD 720p, 1080p] (Хороший звук DUB, MVO) [ 11.01 GB ] Человек - швейцарский нож / Swiss Army Man [2016 BDRip 1080p by msltel] DUB 2 x AVO msltel Скачать
    1 | 0
    Фильмы [HD 720p, 1080p] (Хороший звук DUB, MVO) [ 4.37 GB ] Человек - швейцарский нож / Swiss Army Man [2016 BDRip 720p by msltel] DUB 2 x AVO msltel Скачать
    1 | 0
    Фильмы 2016 [DVDrip, WEB-DLRip, HDrip] (DUB, MVO) [ 1.46 GB ] Человек – швейцарский нож / Swiss Army Man [2016 Мюзикл BDRip] DUB [ R5] bober100 Скачать
    1 | 0
    Фильмы (Blu-ray, BD-Remux, HDDVD) [ 27.26 GB ] Человек – швейцарский нож / Swiss Army Man [2016 Мюзикл BD Remux 1080p] DUB [] bober100 Скачать
    1 | 0
    Фильмы [HD 720p, 1080p] (Хороший звук DUB, MVO) [ 9.4 GB ] Человек – швейцарский нож / Swiss Army Man [2016 Мюзикл BDRip 1080p] DUB [] bober100 Скачать
    1 | 0
    Фильмы 2016 [DVDrip, WEB-DLRip, HDrip] (DUB, MVO) [ 746 MB ] Человек – швейцарский нож / Swiss Army Man [2016 Мюзикл HDRip] DUB [ R5] bober100 Скачать
    1 | 0

    28-11-2019 20:33  

    Отключить всю рекламу на сайте

    23-09-2016 21:40 Человек – швейцарский нож Скачать торрент  

    Спасибо большое!!!pb.wtf



    27-09-2016 08:47 Человек – швейцарский нож Скачать торрент  

    О боже,такого пердежа я давненько не видел в фильмах.От пердежа в фильме, даже тошно становится.Бред какой поискать надо. Зря потраченное время. pb.wtf



      Дорогой пользователь! Огромная просьба, поблагодарите релизера, оцените раздачу и оставьте свои комментарий, если Вы скачали Человек – швейцарский нож через торрент бесплатно! Внесите свою лепту в развитие PiratBit!
      Комментировать посты могут только пользователи прошедшие не сложную регистрацию
      Показать сообщения:    

      Человек – швейцарский нож через торрент
      Скачать бесплатно Человек – швейцарский нож
      Человек – швейцарский нож скачать торрент
      Человек – швейцарский нож смотреть онлайн
      Cкачать фильм Человек – швейцарский нож бесплатно
      Человек – швейцарский нож скачать торрент в хорошем качестве
      Человек – швейцарский нож смотреть онлайн бесплатно в хорошем качестве


      Вы не можете начинать темы
      Вы не можете отвечать на сообщения
      Вы не можете редактировать свои сообщения
      Вы не можете удалять свои сообщения
      Вы не можете голосовать в опросах
      Вы не можете прикреплять файлы к сообщениям
      Вы можете скачивать файлы