Ссылка на приватное зеркало нашего сайта всего за 1$. Внимание количество ограничено!!!

2 сезон

iTunes

1 сезон

1

iTunes

iTunes

iTunes

1 сезон

RePack

30

ИГРА 18+

pack

ВАЖНО

!!Акция!!

Alien_RageХит недели

RePack

MK11
pack

Забери бонус

RePack

jed

!!Акция!!

Alien_Rage

RePack

fifa19

RePack

Assassins Creed: Odyssey

RePack

NEED FOR SPEED™ PAYBACK

4 сезон

9 сезон

Бесстыжие 9 сезон

Все сериалы

все сериалы на PB.wtf

RePack

FAR CRY 5
  

Тарзан. Легенда / The Legend of Tarzan (Дэвид Йэтс) [2016, Боевик, приключения, HDRip-AVC] [DUB] [Лицензия / iTunes] pb.wtf

Тарзан. Легенда через торрент pb.wtf

Размер: 1.53 GB | Добавлен: 4 года 1 мес. назад | Торрент скачан:325 раз
Скачать  

24-09-2016 10:59 Тарзан. Легенда Скачать торрент  

Тарзан. Легенда / The Legend of Tarzan
Год выпуска: 2016
Жанр: Боевик, приключения
Выпущено: США, Dark Horse Entertainment, Jerry Weintraub Productions, Riche Productions
Продолжительность: 01:53:48
Перевод: Дублированный [Лицензия / iTunes]
Субтитры: •Russian (Forced, iTunes), Russian (Полные,iTunes)

Режиссер: Дэвид Йэтс

В ролях: Александр Скарсгард, Рори Дж. Сапер, Кристоф Вальц, Сэмюэл Л. Джексон, Марго Робби, Ози Икхайл, Менс-Сана Тамакло, Энтони Ачеампонг Приспособившийся к жизни в Лондоне Тарзан возвращается в свой бывший дом, в джунгли, чтобы разобраться в том, что происходит в лагере горнодобывающей компании.



Качество: HDRip-AVC
Формат: MKV
Видео: AVC, 1040x432 (2.40:1), 1600 kbps, 23.976 fps,0.149 bpp
Аудио: 48.0 KHz, AC3, 6 ch, 384 Кбит/с
General
Unique ID : 216889935607977457790989974956146091100 (0xA32B7B6EFE1985BCAA2892B280D6E45C)
Complete name : H:\Торрент\The.Legend.of.Tarzan.2016.D.BDRip-AVC.mkv
Format : Matroska
Format version : Version 4 / Version 2
File size : 1.53 GiB
Duration : 1h 49mn
Overall bit rate : 1 986 Kbps
Encoded date : UTC 2016-09-23 15:59:22
Writing application : mkvmerge v7.8.0 ('River Man') 32bit built on Mar 27 2015 16:18:02
Writing library : libebml v1.3.1 + libmatroska v1.4.2

Video
ID : 1
Format : AVC
Format/Info : Advanced Video Codec
Format profile : High@L4.1
Format settings, CABAC : Yes
Format settings, ReFrames : 5 frames
Codec ID : V_MPEG4/ISO/AVC
Duration : 1h 49mn
Bit rate : 1 600 Kbps
Width : 1 040 pixels
Height : 432 pixels
Display aspect ratio : 2.40:1
Frame rate mode : Constant
Frame rate : 23.976 fps
Color space : YUV
Chroma subsampling : 4:2:0
Bit depth : 8 bits
Scan type : Progressive
Bits/(Pixel*Frame) : 0.149
Stream size : 1.20 GiB (79%)
Writing library : x264 core 148 r2705M 3f5ed56
Encoding settings : cabac=1 / ref=5 / deblock=1:-1:-1 / analyse=0x3:0x133 / me=umh / subme=9 / psy=1 / psy_rd=1.00:0.15 / mixed_ref=1 / me_range=16 / chroma_me=1 / trellis=1 / 8x8dct=1 / cqm=0 / deadzone=21,11 / fast_pskip=1 / chroma_qp_offset=-3 / threads=5 / lookahead_threads=1 / sliced_threads=0 / nr=0 / decimate=1 / interlaced=0 / bluray_compat=0 / constrained_intra=0 / bframes=5 / b_pyramid=2 / b_adapt=2 / b_bias=0 / direct=3 / weightb=1 / open_gop=0 / weightp=2 / keyint=230 / keyint_min=23 / scenecut=40 / intra_refresh=0 / rc_lookahead=40 / rc=2pass / mbtree=1 / bitrate=1600 / ratetol=1.0 / qcomp=0.60 / qpmin=0 / qpmax=69 / qpstep=4 / cplxblur=20.0 / qblur=0.5 / ip_ratio=1.40 / aq=1:1.00
Language : English
Default : Yes
Forced : No
DURATION : 01:49:58.801000000
NUMBER_OF_FRAMES : 158213
NUMBER_OF_BYTES : 1319636265
_STATISTICS_WRITING_APP : mkvmerge v7.8.0 ('River Man') 32bit built on Mar 27 2015 16:18:02
_STATISTICS_WRITING_DATE_UT : 2016-09-23 15:59:22
_STATISTICS_TAGS : BPS DURATION NUMBER_OF_FRAMES NUMBER_OF_BYTES

Audio
ID : 2
Format : AC-3
Format/Info : Audio Coding 3
Mode extension : CM (complete main)
Format settings, Endianness : Big
Codec ID : A_AC3
Duration : 1h 49mn
Bit rate mode : Constant
Bit rate : 384 Kbps
Channel(s) : 6 channels
Channel positions : Front: L C R, Side: L R, LFE
Sampling rate : 48.0 KHz
Compression mode : Lossy
Stream size : 302 MiB (19%)
Title : Дублированный (iTunes)
Language : Russian
Default : Yes
Forced : No
DURATION : 01:49:57.824000000
NUMBER_OF_FRAMES : 206182
NUMBER_OF_BYTES : 316695552
_STATISTICS_WRITING_APP : mkvmerge v7.8.0 ('River Man') 32bit built on Mar 27 2015 16:18:02
_STATISTICS_WRITING_DATE_UT : 2016-09-23 15:59:22
_STATISTICS_TAGS : BPS DURATION NUMBER_OF_FRAMES NUMBER_OF_BYTES

Text #1
ID : 3
Format : UTF-8
Codec ID : S_TEXT/UTF8
Codec ID/Info : UTF-8 Plain Text
Title : Форс
Language : Russian
Default : Yes
Forced : No
DURATION : 01:43:50.558000000
NUMBER_OF_FRAMES : 43
NUMBER_OF_BYTES : 2393
_STATISTICS_WRITING_APP : mkvmerge v7.8.0 ('River Man') 32bit built on Mar 27 2015 16:18:02
_STATISTICS_WRITING_DATE_UT : 2016-09-23 15:59:22
_STATISTICS_TAGS : BPS DURATION NUMBER_OF_FRAMES NUMBER_OF_BYTES

Text #2
ID : 4
Format : UTF-8
Codec ID : S_TEXT/UTF8
Codec ID/Info : UTF-8 Plain Text
Title : Полные
Language : Russian
Default : No
Forced : No
DURATION : 01:43:50.558000000
NUMBER_OF_FRAMES : 712
NUMBER_OF_BYTES : 35557
_STATISTICS_WRITING_APP : mkvmerge v7.8.0 ('River Man') 32bit built on Mar 27 2015 16:18:02
_STATISTICS_WRITING_DATE_UT : 2016-09-23 15:59:22
_STATISTICS_TAGS : BPS DURATION NUMBER_OF_FRAMES NUMBER_OF_BYTES

Menu
00:00:00.000 : :00:00:00.000
00:10:56.239 : :00:10:56.239
00:20:47.204 : :00:20:47.204
00:28:26.288 : :00:28:26.288
00:40:49.197 : :00:40:49.197
00:51:03.310 : :00:51:03.310
01:01:15.297 : :01:01:15.297
01:10:22.635 : :01:10:22.635
01:20:58.145 : :01:20:58.145
01:29:09.344 : :01:29:09.344
01:42:06.495 : :01:42:06.495
pb.wtf



Скачать Тарзан. Легенда через торрент http://i78.fastpic.ru/big/2016/0917/0e/1c6da5e0bde18f647808a13b220ab20e.png Скачать фильм Тарзан. Легенда через торрент бесплантно в хорошем качестве В ролях: Александр Скарсгард, Рори Дж. Сапер, Кристоф Вальц, Сэмюэл Л. Джексон, Марго Робби, Ози Икхайл, Менс-Сана Тамакло, Энтони ... 8.9 10 8
Info! Золотая раздача, скачанное не засчитывается.
Торрент: Зарегистрирован [2016-09-24 10:59] · скачан: 325 раз
Статус: √ проверено
Размер: 1.53 GB
Как cкачать? Как скачать Тарзан. Легенда через торрент | qTorrent

% Раздел Тема Автор DL S | L
Ultra HD (UHD: 2K, 4K, 8K) — видео сверхвысокой чёткости [ 52.3 GB ] Тарзан. Легенда / The Legend of Tarzan [2016 UHD Blu-ray 2160p] - [] sheker187 Скачать
1 | 0
Ultra HD (UHD: 2K, 4K, 8K) — видео сверхвысокой чёткости [ 17.65 GB ] Тарзан. Легенда / The Legend of Tarzan [2016 UHD BDRip 2160p] - [] sheker187 Скачать
1 | 1
Фильмы [HD 720p, 1080p] (Хороший звук DUB, MVO) [ 5.76 GB ] Грейстоук. Легенда о Тарзане повелителе обезьян / Greystoke: The Legend of Tarzan Lord of the Apes [1984 BDRip 720p by msltel] DUB MVO 2 x AVO msltel Скачать
1 | 0
Фильмы [HD 720p, 1080p] (Хороший звук DUB, MVO) [ 15.08 GB ] Грейстоук. Легенда о Тарзане повелителе обезьян / Greystoke: The Legend of Tarzan Lord of the Apes [1984 BDRip 1080p by msltel] DUB MVO 2 x AVO msltel Скачать
1 | 0
Фильмы [HD 720p, 1080p] (Хороший звук DUB, MVO) [ 7.73 GB ] Тарзан. Легенда / The Legend of Tarzan [ BDRip 1080p] DUB + MVO potroks Скачать
2 | 0
Ultra HD (UHD: 2K, 4K, 8K) — видео сверхвысокой чёткости [ 43.48 GB ] Тарзан. Легенда / The Legend of Tarzan [2016 UHD BDRemux 2160p] DUB [] bober100 Скачать
1 | 0
Фильмы [HD 720p, 1080p] (Хороший звук DUB, MVO) [ 4.37 GB ] Тарзан. Легенда / The Legend of Tarzan [2016 BDRip 720p] DUB [] bober100 Скачать
1 | 0


Последний раз редактировалось: killermax2013 (2016-09-24 12:31), всего редактировалось 1 раз

28-11-2019 20:33  

Отключить всю рекламу на сайте

24-09-2016 12:26 Тарзан. Легенда Скачать торрент  

BDRip? Вряд ли... REMUX еще не раздали!pb.wtf



24-09-2016 12:30 Тарзан. Легенда Скачать торрент  

Twi7ter писал(а):

BDRip? Вряд ли... REMUX еще не раздали!

Походу исходник
The.Legend.of.Tarzan.2016.1080p.BluRay.x264.TrueHD.7.1.Atmos-FGT
pb.wtf



24-09-2016 12:31 Тарзан. Легенда Скачать торрент  

Twi7ter, на клабе еще 3 суток будут ремукс раздавать pb.wtf



24-09-2016 12:35 Тарзан. Легенда Скачать торрент  

killermax2013 писал(а):

Twi7ter писал(а):

BDRip? Вряд ли... REMUX еще не раздали!

Походу исходник
The.Legend.of.Tarzan.2016.1080p.BluRay.x264.TrueHD.7.1.Atmos-FGT

Тогда HDRip)pb.wtf



    Дорогой пользователь! Огромная просьба, поблагодарите релизера, оцените раздачу и оставьте свои комментарий, если Вы скачали Тарзан. Легенда через торрент бесплатно! Внесите свою лепту в развитие PiratBit!
    Комментировать посты могут только пользователи прошедшие не сложную регистрацию
    Показать сообщения:    

    Тарзан. Легенда через торрент
    Скачать бесплатно Тарзан. Легенда
    Тарзан. Легенда скачать торрент
    Тарзан. Легенда смотреть онлайн
    Cкачать фильм Тарзан. Легенда бесплатно
    Тарзан. Легенда скачать торрент в хорошем качестве
    Тарзан. Легенда смотреть онлайн бесплатно в хорошем качестве


    Вы не можете начинать темы
    Вы не можете отвечать на сообщения
    Вы не можете редактировать свои сообщения
    Вы не можете удалять свои сообщения
    Вы не можете голосовать в опросах
    Вы не можете прикреплять файлы к сообщениям
    Вы можете скачивать файлы