Ссылка на приватное зеркало нашего сайта всего за 1$. Внимание количество ограничено!!!

2 сезон

iTunes

1 сезон

1

2 сезон

2 сезон

iTunes

1 сезон

RePack

30

Новинка

ВАЖНО

ИГРА 18+

pack

RePack

MK11
pack

Забери бонус

RePack

jed

!!Акция!!

Alien_Rage

RePack

fifa19

RePack

Assassins Creed: Odyssey

RePack

NEED FOR SPEED™ PAYBACK

4 сезон

9 сезон

Бесстыжие 9 сезон

Все сериалы

все сериалы на PB.wtf

RePack

FAR CRY 5
  

Кайф с доставкой / High Maintenance / Сезон 1 / Серии 6 из 6 (Катя Бликфелд, Бен Синклер, Сара Войлет-Блай) [2016 г., Комедия, HDTVRip 720p, Профессиональный (многоголосый) [AMEDIA]] pb.wtf

Кайф с доставкой через торрент pb.wtf

Размер: 3.92 GB | Добавлен: 4 года 1 мес. назад | Торрент скачан:42 раза
Скачать  

24-09-2016 13:17 Кайф с доставкой Скачать торрент  

Кайф с доставкой / High Maintenance
Год выпуска: 2016
Страна: США
Жанр: Комедия
Продолжительность: ~ 00:30:00
Перевод: Профессиональный (многоголосый) [AMEDIA]
Субтитры: Отсутствуют

Режиссер: Катя Бликфелд, Бен Синклер, Сара Войлет-Блай

Премьера в мире: 2 сентября 2016

rating

В ролях: Бен Синклер, Эйвери Монсен, Хелен Йорк, Кендес Такстон, Молли Кнефель, Бренна Палуги, Джэми Саймон, Грета Ли, Крис Роберти, Майкл Сирил Крейтон

Описание: Дружелюбный дилер марихуаны по прозвищу «Парень» каждый раз получает заказ от новых клиентов, которые страдают от всевозможных расстройств и с радостью посвящают в них своего поставщика.

Дополнительная информация: Изначально это был веб-сериал, созданный семейной парой Беном Синклер и Катей Бликфелд.
В 2014 году Vimeo проинвестировал свой первый оригинальный сериал, заказав создателям 6 новых эпизодов, которые распространялись через принадлежащий Vimeo сервис видео по запросу.
В 2015 году веб-сериал выкупил телеканал HBO.

Качество: HDTVRip 720p
Формат: MKV
Видео кодек: AVC
Аудио кодек: AC3
Видео: AVC, 1280x716, 23,976 fps, 2236 Kbps
Аудио#1: Russian: AC3, 192 kb/s, 2 ch, 48 kHz
Аудио#2: English: AC3, 384 kb/s, 6 ch, 48 kHz
скриншот  скриншот  скриншот  скриншот  скриншот  скриншот  




Общее
Формат : Matroska
Версия формата : Version 4 / Version 2
Размер файла : 667 Мбайт
Продолжительность : 33 м.
Общий поток : 2812 Кбит/сек
Дата кодирования : UTC 2016-09-17 06:51:04
Программа кодирования : mkvmerge v8.3.0 ('Over the Horizon') 64bit
Библиотека кодирования : libebml v1.3.1 + libmatroska v1.4.2

Видео
Идентификатор : 1
Формат : AVC
Формат/Информация : Advanced Video Codec
Профиль формата : High@L4.1
Параметр CABAC формата : Да
Параметр ReFrames формата : 5 кадров
Идентификатор кодека : V_MPEG4/ISO/AVC
Продолжительность : 33 м.
Битрейт : 2236 Кбит/сек
Ширина : 1280 пикселей
Высота : 716 пикселей
Соотношение сторон : 16:9
Режим частоты кадров : Постоянный
Частота кадров : 23,976 (24000/1001) кадра/сек
Цветовое пространство : YUV
Субдискретизация насыщенности : 4:2:0
Битовая глубина : 8 бит
Тип развёртки : Прогрессивная
Бит/(Пиксели*Кадры) : 0.102
Размер потока : 530 Мбайт (79%)
Библиотека кодирования : x264 core 148 r2694 3b70645
Default : Да
Forced : Нет
Цветовой диапазон : Limited
Коэффициенты матрицы : BT.709

Аудио #1
Идентификатор : 2
Формат : AC-3
Формат/Информация : Audio Coding 3
Расширение режима : CM (complete main)
Параметр Endianness формата : Big
Идентификатор кодека : A_AC3
Продолжительность : 33 м.
Вид битрейта : Постоянный
Битрейт : 192 Кбит/сек
Каналы : 2 канала
Расположение каналов : Front: L R
Частота : 48,0 КГц
Частота кадров : 31,250 кадров/сек (1536 spf)
Метод сжатия : С потерями
Размер потока : 45,5 Мбайт (7%)
Язык : Russian
Default : Да
Forced : Нет

Аудио #2
Идентификатор : 3
Формат : AC-3
Формат/Информация : Audio Coding 3
Расширение режима : CM (complete main)
Параметр Endianness формата : Big
Идентификатор кодека : A_AC3
Продолжительность : 33 м.
Вид битрейта : Постоянный
Битрейт : 384 Кбит/сек
Каналы : 6 каналов
Расположение каналов : Front: L C R, Side: L R, LFE
Частота : 48,0 КГц
Частота кадров : 31,250 кадров/сек (1536 spf)
Метод сжатия : С потерями
Размер потока : 91,0 Мбайт (14%)
Язык : English
Default : Нет
Forced : Нет
Общее
Формат : Matroska
Версия формата : Version 4 / Version 2
Размер файла : 672 Мбайт
Продолжительность : 29 м.
Общий поток : 3133 Кбит/сек
Дата кодирования : UTC 2016-09-24 08:43:28
Программа кодирования : mkvmerge v8.3.0 ('Over the Horizon') 64bit
Библиотека кодирования : libebml v1.3.1 + libmatroska v1.4.2

Видео
Идентификатор : 1
Формат : AVC
Формат/Информация : Advanced Video Codec
Профиль формата : High@L4.1
Параметр CABAC формата : Да
Параметр ReFrames формата : 5 кадров
Идентификатор кодека : V_MPEG4/ISO/AVC
Продолжительность : 29 м.
Битрейт : 2555 Кбит/сек
Ширина : 1280 пикселей
Высота : 714 пикселей
Соотношение сторон : 16:9
Режим частоты кадров : Постоянный
Частота кадров : 23,976 (24000/1001) кадра/сек
Цветовое пространство : YUV
Субдискретизация насыщенности : 4:2:0
Битовая глубина : 8 бит
Тип развёртки : Прогрессивная
Бит/(Пиксели*Кадры) : 0.117
Размер потока : 548 Мбайт (82%)
Библиотека кодирования : x264 core 148 r2705 3f5ed56
Default : Да
Forced : Нет
Цветовой диапазон : Limited
Коэффициенты матрицы : BT.709

Аудио #1
Идентификатор : 2
Формат : AC-3
Формат/Информация : Audio Coding 3
Расширение режима : CM (complete main)
Параметр Endianness формата : Big
Идентификатор кодека : A_AC3
Продолжительность : 29 м.
Вид битрейта : Постоянный
Битрейт : 192 Кбит/сек
Каналы : 2 канала
Расположение каналов : Front: L R
Частота : 48,0 КГц
Частота кадров : 31,250 кадров/сек (1536 spf)
Метод сжатия : С потерями
Размер потока : 41,2 Мбайт (6%)
Язык : Russian
Default : Да
Forced : Нет

Аудио #2
Идентификатор : 3
Формат : AC-3
Формат/Информация : Audio Coding 3
Расширение режима : CM (complete main)
Параметр Endianness формата : Big
Идентификатор кодека : A_AC3
Продолжительность : 29 м.
Вид битрейта : Постоянный
Битрейт : 384 Кбит/сек
Каналы : 6 каналов
Расположение каналов : Front: L C R, Side: L R, LFE
Частота : 48,0 КГц
Частота кадров : 31,250 кадров/сек (1536 spf)
Метод сжатия : С потерями
Размер потока : 82,3 Мбайт (12%)
Язык : English
Default : Нет
Forced : Нет
Общее
Формат : Matroska
Версия формата : Version 4 / Version 2
Размер файла : 760 Мбайт
Продолжительность : 25 м.
Общий поток : 4129 Кбит/сек
Дата кодирования : UTC 2016-10-01 04:47:22
Программа кодирования : mkvmerge v8.3.0 ('Over the Horizon') 64bit
Библиотека кодирования : libebml v1.3.1 + libmatroska v1.4.2

Видео
Идентификатор : 1
Формат : AVC
Формат/Информация : Advanced Video Codec
Профиль формата : High@L4.1
Параметр CABAC формата : Да
Параметр ReFrames формата : 5 кадров
Идентификатор кодека : V_MPEG4/ISO/AVC
Продолжительность : 25 м.
Битрейт : 3551 Кбит/сек
Ширина : 1280 пикселей
Высота : 716 пикселей
Соотношение сторон : 16:9
Режим частоты кадров : Постоянный
Частота кадров : 23,976 (24000/1001) кадра/сек
Цветовое пространство : YUV
Субдискретизация насыщенности : 4:2:0
Битовая глубина : 8 бит
Тип развёртки : Прогрессивная
Бит/(Пиксели*Кадры) : 0.162
Размер потока : 654 Мбайт (86%)
Библиотека кодирования : x264 core 148 r2705 3f5ed56
Default : Да
Forced : Нет
Цветовой диапазон : Limited
Коэффициенты матрицы : BT.709

Аудио #1
Идентификатор : 2
Формат : AC-3
Формат/Информация : Audio Coding 3
Расширение режима : CM (complete main)
Параметр Endianness формата : Big
Идентификатор кодека : A_AC3
Продолжительность : 25 м.
Вид битрейта : Постоянный
Битрейт : 192 Кбит/сек
Каналы : 2 канала
Расположение каналов : Front: L R
Частота : 48,0 КГц
Частота кадров : 31,250 кадров/сек (1536 spf)
Метод сжатия : С потерями
Размер потока : 35,3 Мбайт (5%)
Язык : Russian
Default : Да
Forced : Нет

Аудио #2
Идентификатор : 3
Формат : AC-3
Формат/Информация : Audio Coding 3
Расширение режима : CM (complete main)
Параметр Endianness формата : Big
Идентификатор кодека : A_AC3
Продолжительность : 25 м.
Вид битрейта : Постоянный
Битрейт : 384 Кбит/сек
Каналы : 6 каналов
Расположение каналов : Front: L C R, Side: L R, LFE
Частота : 48,0 КГц
Частота кадров : 31,250 кадров/сек (1536 spf)
Метод сжатия : С потерями
Размер потока : 70,7 Мбайт (9%)
Язык : English
Default : Нет
Forced : Нет
Общее
Формат : Matroska
Версия формата : Version 4 / Version 2
Размер файла : 721 Мбайт
Продолжительность : 29 м.
Режим общего битрейта : Переменный
Общий поток : 3379 Кбит/сек
Дата кодирования : UTC 2016-10-09 10:55:23
Программа кодирования : mkvmerge v8.3.0 ('Over the Horizon') 64bit
Библиотека кодирования : libebml v1.3.1 + libmatroska v1.4.2

Видео
Идентификатор : 1
Формат : AVC
Формат/Информация : Advanced Video Codec
Профиль формата : Main@L3.2
Параметр CABAC формата : Да
Параметр ReFrames формата : 4 кадра
Идентификатор кодека : V_MPEG4/ISO/AVC
Продолжительность : 29 м.
Вид битрейта : Переменный
Битрейт : 2801 Кбит/сек
Максимальный битрейт : 3510 Кбит/сек
Ширина : 1280 пикселей
Высота : 720 пикселей
Соотношение сторон : 16:9
Режим частоты кадров : Постоянный
Частота кадров : 23,976 (24000/1001) кадра/сек
Цветовое пространство : YUV
Субдискретизация насыщенности : 4:2:0
Битовая глубина : 8 бит
Тип развёртки : Прогрессивная
Бит/(Пиксели*Кадры) : 0.127
Размер потока : 598 Мбайт (83%)
Default : Да
Forced : Нет

Аудио #1
Идентификатор : 2
Формат : AC-3
Формат/Информация : Audio Coding 3
Расширение режима : CM (complete main)
Параметр Endianness формата : Big
Идентификатор кодека : A_AC3
Продолжительность : 29 м.
Вид битрейта : Постоянный
Битрейт : 192 Кбит/сек
Каналы : 2 канала
Расположение каналов : Front: L R
Частота : 48,0 КГц
Частота кадров : 31,250 кадров/сек (1536 spf)
Метод сжатия : С потерями
Задержка видео : 32 мс.
Размер потока : 41,0 Мбайт (6%)
Язык : Russian
Default : Да
Forced : Нет

Аудио #2
Идентификатор : 3
Формат : AC-3
Формат/Информация : Audio Coding 3
Расширение режима : CM (complete main)
Параметр Endianness формата : Big
Идентификатор кодека : A_AC3
Продолжительность : 29 м.
Вид битрейта : Постоянный
Битрейт : 384 Кбит/сек
Каналы : 6 каналов
Расположение каналов : Front: L C R, Side: L R, LFE
Частота : 48,0 КГц
Частота кадров : 31,250 кадров/сек (1536 spf)
Метод сжатия : С потерями
Задержка видео : 32 мс.
Размер потока : 81,9 Мбайт (11%)
Язык : English
Default : Нет
Forced : Нет

Текст
Идентификатор : 4
Формат : UTF-8
Идентификатор кодека : S_TEXT/UTF8
Идентификатор кодека/Информация : UTF-8 Plain Text
Продолжительность : 29 м.
Битрейт : 99 бит/сек
Count of elements : 480
Размер потока : 21,6 Кбайт (0%)
Язык : English
Default : Нет
Forced : Нет
Общее
Формат : Matroska
Версия формата : Version 4 / Version 2
Размер файла : 641 Мбайт
Продолжительность : 27 м.
Общий поток : 3208 Кбит/сек
Дата кодирования : UTC 2016-10-15 05:02:49
Программа кодирования : mkvmerge v8.3.0 ('Over the Horizon') 64bit
Библиотека кодирования : libebml v1.3.1 + libmatroska v1.4.2

Видео
Идентификатор : 1
Формат : AVC
Формат/Информация : Advanced Video Codec
Профиль формата : High@L4.1
Параметр CABAC формата : Да
Параметр ReFrames формата : 5 кадров
Идентификатор кодека : V_MPEG4/ISO/AVC
Продолжительность : 27 м.
Битрейт : 2630 Кбит/сек
Ширина : 1280 пикселей
Высота : 716 пикселей
Соотношение сторон : 16:9
Режим частоты кадров : Постоянный
Частота кадров : 23,976 (24000/1001) кадра/сек
Цветовое пространство : YUV
Субдискретизация насыщенности : 4:2:0
Битовая глубина : 8 бит
Тип развёртки : Прогрессивная
Бит/(Пиксели*Кадры) : 0.120
Размер потока : 525 Мбайт (82%)
Библиотека кодирования : x264 core 148 r2705 3f5ed56
Default : Да
Forced : Нет
Цветовой диапазон : Limited
Коэффициенты матрицы : BT.709

Аудио #1
Идентификатор : 2
Формат : AC-3
Формат/Информация : Audio Coding 3
Расширение режима : CM (complete main)
Параметр Endianness формата : Big
Идентификатор кодека : A_AC3
Продолжительность : 27 м.
Вид битрейта : Постоянный
Битрейт : 192 Кбит/сек
Каналы : 2 канала
Расположение каналов : Front: L R
Частота : 48,0 КГц
Частота кадров : 31,250 кадров/сек (1536 spf)
Метод сжатия : С потерями
Размер потока : 38,4 Мбайт (6%)
Язык : Russian
Default : Да
Forced : Нет

Аудио #2
Идентификатор : 3
Формат : AC-3
Формат/Информация : Audio Coding 3
Расширение режима : CM (complete main)
Параметр Endianness формата : Big
Идентификатор кодека : A_AC3
Продолжительность : 27 м.
Вид битрейта : Постоянный
Битрейт : 384 Кбит/сек
Каналы : 6 каналов
Расположение каналов : Front: L C R, Side: L R, LFE
Частота : 48,0 КГц
Частота кадров : 31,250 кадров/сек (1536 spf)
Метод сжатия : С потерями
Размер потока : 76,7 Мбайт (12%)
Язык : English
Default : Нет
Forced : Нет
Общее
Формат : Matroska
Версия формата : Version 4 / Version 2
Размер файла : 553 Мбайт
Продолжительность : 30 м.
Общий поток : 2530 Кбит/сек
Дата кодирования : UTC 2016-10-22 05:30:10
Программа кодирования : mkvmerge v8.3.0 ('Over the Horizon') 64bit
Библиотека кодирования : libebml v1.3.1 + libmatroska v1.4.2

Видео
Идентификатор : 1
Формат : AVC
Формат/Информация : Advanced Video Codec
Профиль формата : High@L4.1
Параметр CABAC формата : Да
Параметр ReFrames формата : 5 кадров
Идентификатор кодека : V_MPEG4/ISO/AVC
Продолжительность : 30 м.
Битрейт : 1958 Кбит/сек
Ширина : 1280 пикселей
Высота : 720 пикселей
Соотношение сторон : 16:9
Режим частоты кадров : Постоянный
Частота кадров : 23,976 (24000/1001) кадра/сек
Цветовое пространство : YUV
Субдискретизация насыщенности : 4:2:0
Битовая глубина : 8 бит
Тип развёртки : Прогрессивная
Бит/(Пиксели*Кадры) : 0.089
Размер потока : 427 Мбайт (77%)
Библиотека кодирования : x264 core 148 r2705 3f5ed56
Язык : English
Default : Да
Forced : Нет

Аудио #1
Идентификатор : 2
Формат : AC-3
Формат/Информация : Audio Coding 3
Расширение режима : CM (complete main)
Параметр Endianness формата : Big
Идентификатор кодека : A_AC3
Продолжительность : 30 м.
Вид битрейта : Постоянный
Битрейт : 192 Кбит/сек
Каналы : 2 канала
Расположение каналов : Front: L R
Частота : 48,0 КГц
Частота кадров : 31,250 кадров/сек (1536 spf)
Метод сжатия : С потерями
Размер потока : 42,0 Мбайт (8%)
Язык : Russian
Default : Да
Forced : Нет

Аудио #2
Идентификатор : 3
Формат : AC-3
Формат/Информация : Audio Coding 3
Расширение режима : CM (complete main)
Параметр Endianness формата : Big
Идентификатор кодека : A_AC3
Продолжительность : 30 м.
Вид битрейта : Постоянный
Битрейт : 384 Кбит/сек
Каналы : 6 каналов
Расположение каналов : Front: L C R, Side: L R, LFE
Частота : 48,0 КГц
Частота кадров : 31,250 кадров/сек (1536 spf)
Метод сжатия : С потерями
Размер потока : 83,8 Мбайт (15%)
Язык : English
Default : Нет
Forced : Нет

pb.wtf



Скачать Кайф с доставкой через торрент http://pic1.kartinco.top/images/10/i9q82.jpg Скачать фильм Кайф с доставкой через торрент бесплантно в хорошем качестве Описание: Дружелюбный дилер марихуаны по прозвищу «Парень» каждый раз получает заказ от новых клиентов, которые страдают от всевозможных ... 8.7 10 7
Торрент: Зарегистрирован [2016-10-23 09:36] · скачан: 42 раз
Статус: √ проверено
Размер: 3.92 GB
Как cкачать? Как скачать Кайф с доставкой через торрент | qTorrent



Последний раз редактировалось: Quatron (2016-10-23 18:19), всего редактировалось 9 раз(а)

28-11-2019 20:33  

Отключить всю рекламу на сайте

24-09-2016 17:45 Кайф с доставкой Скачать торрент  

02-10-2016 17:24 Кайф с доставкой Скачать торрент  

если один педик трахает другого на весь экран а юная мусульманка курит гашиш и хочет давать всем подряд то возможно это комедияpb.wtf



02-10-2016 18:12 Кайф с доставкой Скачать торрент  

kpuctaluk писал(а):

если один педик трахает другого на весь экран а юная мусульманка курит гашиш и хочет давать всем подряд то возможно это комедия

истину глаголитеpb.wtf



09-10-2016 17:27 Кайф с доставкой Скачать торрент  

Вся первая серия про гомосятину,проблевался и в топку его,бредовый сериал.Пусть европейцы смотрятpb.wtf



23-10-2016 13:21 Кайф с доставкой Скачать торрент  

Homofox писал(а):

Вся первая серия про гомосятину,проблевался и в топку его,бредовый сериал.Пусть европейцы смотрят

у вас ник от слова гомофоб?

ок, смотрите тогда сериалы от ТНТ. Это как раз специально для таких.pb.wtf



    Дорогой пользователь! Огромная просьба, поблагодарите релизера, оцените раздачу и оставьте свои комментарий, если Вы скачали Кайф с доставкой через торрент бесплатно! Внесите свою лепту в развитие PiratBit!
    Комментировать посты могут только пользователи прошедшие не сложную регистрацию
    Показать сообщения:    

    Кайф с доставкой через торрент
    Скачать бесплатно Кайф с доставкой
    Кайф с доставкой скачать торрент
    Кайф с доставкой смотреть онлайн
    Cкачать фильм Кайф с доставкой бесплатно
    Кайф с доставкой скачать торрент в хорошем качестве
    Кайф с доставкой смотреть онлайн бесплатно в хорошем качестве


    Вы не можете начинать темы
    Вы не можете отвечать на сообщения
    Вы не можете редактировать свои сообщения
    Вы не можете удалять свои сообщения
    Вы не можете голосовать в опросах
    Вы не можете прикреплять файлы к сообщениям
    Вы можете скачивать файлы