новый адрес
Ссылка на приватное зеркало всего за 1$. Внимание количество ограничено!!!

iTunes

1+1

iTunes

мы

iTunes

1

iTunes

Чернобыль

iTunes

Ральф против интернета

Лицензия

ПШазам

Лицензия

Оно 2

Лицензия

30
pack

Вам бонус

ВАЖНО

!!Акция!!

Alien_RageХит недели

RePack

Resident Evil 21

ИГРА 18+

pack

RePack

jed

!!Акция!!

Alien_Rage

RePack

fifa19

RePack

Assassins Creed: Odyssey

RePack

NEED FOR SPEED™ PAYBACK

3 сезон

9 сезон

Бесстыжие 9 сезон

Все сериалы

все сериалы на PB.wtf

RePack

FAR CRY 5
Ребята, катастрофически не хватает 1900р. для оплаты серверов за Октябрь (всвязи с блокировками трафик упал в 3 раза), 1-2р., выручайте.
  

Порожденный / Begotten (Э. Элиас Мэридж ) [1990, ужасы, фэнтези, DVDRip, Перевод отсутствует []] pb.wtf

Порожденный через торрент pb.wtf

Размер: 1.09 GB | Добавлен: 3 года 2 мес. назад | Торрент скачан:5 раз
Скачать  

24-09-2016 15:48 Порожденный Скачать торрент  

Порожденный / Begotten

Год выпуска: 1990
Страна: США
Жанр: ужасы, фэнтези
Продолжительность: 01:12:11
Перевод: Перевод отсутствует [Не требуется]
Режиссер: Э. Элиас Мэридж
В ролях: Брайан Салцберг (God Killing играет самого себя), Донна Демпси (Mother Earth), Стефен Чарльз Бэрри (Son Of Earth - Flesh On Bone), Джеймс Кандия, Дэниэл Харкинс, Майкл Филлипс, Эрик Славин, Артур Стритер, Адольфо Варгас, Гарфилд Уайт
Описание:
Бог стар и безумен, он потрошит себя бритвой в заброшенном доме, одинокий и никому не нужный. Мать Земля дождавшись смерти, сделала его ещё теплому телу минет и оплодотворила себя семенем. Далеко в пустыне, она родила уродливого Сына Земли - Плоть на Кости, где его подобрали прокаженные и отправились с ним в странствие.
Рейтинг:
rating
Качество: DVDRip
Формат: AVI
Видео: XviD, 704x544 (1.294), 1956 kbps, 23,976 fps, 0,213 bpp
Аудио: AC3 / 2.0 / 48 kHz / 192 kbps /
Фильм «Порожденный» это метафизическое творение, не имеющее аналогов в мировом кинематографе. Гениальное произведение, в котором автор общается со зрителями не примитивной речью слов и предложений, а языком символом и метафор. Даже сложно вообразить, сколько устойчивых и абстрактных символом смог вложить Эдмунд Меридж в 72 минутный фильм. Перечислить все просто невозможно! Это надо смотреть. Хотя, нет. Это надо созерцать — да и то не все смогут.

В «Порожденным» присутствуют кадры, который врезаются в наш «нормальный» разум так явно и резко, что мы их уже некогда не сможем забыть. Мы — толстокожие эстеты не сможем до конца прочувствовать все великолепие этого фильма, если не сможем отрешиться от нашего существования. Мы должны забыть обо все, прежде чем смотреть этот фильм.

Этот фильм — данность. Она рассказывает о нашей, человеческой сущности, о грехе, о пороке и об искуплении. «Порожденного» нельзя забыть. После просмотра он будет, является нам во снах, у нас в мозгу будут прокручиваться кадры из фильма и мы будем переживать все заново. Нет, это не шедевр. Это данность. Данность свыше. Божественное явление.

Перейду к более материальным и безусловным вещам. Изумительная, не на что не похожая операторская работа. Эдмунд Меридж оказался невероятно талантливым и одаренным человеком, он смог создать эффект присутствия без затраты огромных денег на спецэффект и прочие фенечки для девочек. Он показывает сухо, но так натуралистично, что зрителю кажется, что все ужасы происходят за дверью, а он подсматривает в замочную скважину. Потрясающе!

General
Complete name : D:\торренты\Begotten.1990.avi
Format : AVI
Format/Info : Audio Video Interleave
File size : 1.09 GiB
Duration : 1 h 12 min
Overall bit rate : 2 158 kb/s
Writing application : VirtualDubMod 1.5.10.2 (build 2540/release)
Writing library : VirtualDubMod build 2540/release

Video
ID : 0
Format : MPEG-4 Visual
Format profile : Advanced Simple@L5
Format settings, BVOP : 2
Format settings, QPel : No
Format settings, GMC : No warppoints
Format settings, Matrix : Custom
Codec ID : XVID
Codec ID/Hint : XviD
Duration : 1 h 12 min
Bit rate : 1 957 kb/s
Width : 704 pixels
Height : 544 pixels
Display aspect ratio : 1.294
Frame rate : 23.976 (24000/1001) FPS
Color space : YUV
Chroma subsampling : 4:2:0
Bit depth : 8 bits
Scan type : Progressive
Compression mode : Lossy
Bits/(Pixel*Frame) : 0.213
Stream size : 1 010 MiB (91%)
Writing library : XviD 1.2.1 (UTC 2008-12-04)

Audio
ID : 1
Format : AC-3
Format/Info : Audio Coding 3
Mode extension : CM (complete main)
Format settings, Endianness : Big
Codec ID : 2000
Duration : 1 h 12 min
Bit rate mode : Constant
Bit rate : 192 kb/s
Channel(s) : 2 channels
Channel positions : Front: L R
Sampling rate : 48.0 kHz
Frame rate : 31.250 FPS (1536 spf)
Compression mode : Lossy
Stream size : 99.1 MiB (9%)
Alignment : Split accross interleaves
Interleave, duration : 42 ms (1.00 video frame)
Interleave, preload duration : 500 ms
pb.wtf



Скачать Порожденный через торрент http://i82.fastpic.ru/big/2016/0924/15/6ee490275ddf72040a9e3043ac2efb15.png Скачать фильм Порожденный через торрент бесплантно в хорошем качестве Описание: Бог стар и безумен, он потрошит себя бритвой в заброшенном доме, одинокий и никому не нужный. Мать Земля дождавшись смерти, ... 10 10 2
Торрент: Зарегистрирован [2016-09-24 15:48] · скачан: 5 раз
Статус: √ проверено
Размер: 1.09 GB
Как cкачать? Как скачать Порожденный через торрент | qTorrent

Отключить всю рекламу на сайте
    Дорогой пользователь! Огромная просьба, поблагодарите релизера, оцените раздачу и оставьте свои комментарий, если Вы скачали Порожденный через торрент бесплатно! Внесите свою лепту в развитие PiratBit!
    Комментировать посты могут только пользователи прошедшие не сложную регистрацию
    Показать сообщения:    

    Порожденный через торрент
    Скачать бесплатно Порожденный
    Порожденный скачать торрент
    Порожденный смотреть онлайн
    Cкачать фильм Порожденный бесплатно
    Порожденный скачать торрент в хорошем качестве
    Порожденный смотреть онлайн бесплатно в хорошем качестве


    Вы не можете начинать темы
    Вы не можете отвечать на сообщения
    Вы не можете редактировать свои сообщения
    Вы не можете удалять свои сообщения
    Вы не можете голосовать в опросах
    Вы не можете прикреплять файлы к сообщениям
    Вы можете скачивать файлы