Ссылка на приватное зеркало всего за 1$. Внимание количество ограничено!!!

iTunes

iTunes

iTunes

1

iTunes

iTunes

iTunes

iTunes

iTunes

30
pack

$ от Little Big

ВАЖНО

!!Акция!!

Alien_RageХит недели

RePack

Resident Evil 21

ИГРА 18+

pack

RePack

jed

!!Акция!!

Alien_Rage

RePack

fifa19

RePack

Assassins Creed: Odyssey

RePack

NEED FOR SPEED™ PAYBACK

4 сезон

9 сезон

Бесстыжие 9 сезон

Все сериалы

все сериалы на PB.wtf

RePack

FAR CRY 5
  

Когда молчат фанфары / When Trumpets Fade (Джон Ирвин) [1998, боевик, драма, военный, WEB-DL 720p] DVO, AVO, VO pb.wtf

Когда молчат фанфары через торрент pb.wtf

Размер: 2.07 GB | Добавлен: 3 года 9 мес. назад | Торрент скачан:181 раз
Скачать  

25-09-2016 18:45 Когда молчат фанфары Скачать торрент  

Когда молчат фанфары / When Trumpets Fade

Год выпуска: 1998
Страна: США
Жанр: боевик, драма, военный

Продолжительность: 01:32:25
Перевод: Профессиональный (двухголосый, закадровый) Екатеринбург Арт + Профессиональный (одноголосый, закадровый) + Авторский (одноголосый, закадровый) Александр Кашкин
Субтитры: английские
Режиссер: Джон Ирвин
В ролях:

Рон Элдард (Manning), Зак Орт (Warren), Фрэнк Уэйли (Medic Chamberlain), Дилан Бруно (Sgt. Talbot), Девон Гаммерсолл (Lonnie), Дэн Футтерман (Despin), Стивен Петрарка (Baxter), Дуайт Йоакам (Lt. Colonel), Мартин Донован (Captain Pritchett), Тимоти Олифант (Lt. Lukas), Джеффри Донован (Bobby), Бобби Каннавале (Captain Zenek)
Описание:
Осенью 1944 года, когда казалось, что война на Западном фронте подходит к концу, и американцы надеялись к Рождеству вернуться домой, 28-я пехотная дивизия получила приказ взять укрепленные вражеские позиции на германской границе, прозванные «фабрикой смерти».
Рейтинг:

MPAA: R - Лицам до 17 лет обязательно присутствие взрослого
Качество: WEB-DL 720p
Формат: MKV
Видео: AVC, 1280x720 (16:9), 2500 kb/s, 23,976 fps
Аудио №1: русский / AC3 / 2.0 / 48 kHz / 192 kbps / |Двухголосый закадровый, Екатеринбург Арт|
Аудио №2: русский / AC3 / 2.0 / 48 kHz / 192 kbps / |Одноголосый закадровый|
Аудио №3: русский / AC3 / 2.0 / 48 kHz / 192 kbps / |Авторский, А.Кашкин|
Аудио №4: английский / AAC LC / 2.0 / 48 kHz / 192 kbps
Релиз от:
General
Unique ID : 172319834196313682928905270855454653320 (0x81A397C64426EAE9BA9889F3CEA37B88)
Complete name : E:\Torrent\film\Когда молчат фанфары.mkv
Format : Matroska
Format version : Version 4 / Version 2
File size : 2.07 GiB
Duration : 1 h 32 min
Overall bit rate mode : Variable
Overall bit rate : 3 199 kb/s
Movie name : When.Trumpets.Fade.1998.720p.WEB-DL.AAC2.0.H264-FGT
Encoded date : UTC 2015-10-21 16:05:12
Writing application : mkvmerge v6.2.0 ('Promised Land') built on Apr 28 2013 12:22:01
Writing library : libebml v1.3.0 + libmatroska v1.4.0

Video
ID : 1
Format : AVC
Format/Info : Advanced Video Codec
Format profile : High@L3.1
Format settings, CABAC : Yes
Format settings, ReFrames : 5 frames
Codec ID : V_MPEG4/ISO/AVC
Duration : 1 h 32 min
Bit rate mode : Variable
Maximum bit rate : 3 750 kb/s
Width : 1 280 pixels
Height : 720 pixels
Display aspect ratio : 16:9
Frame rate mode : Constant
Frame rate : 23.976 (24000/1001) FPS
Color space : YUV
Chroma subsampling : 4:2:0
Bit depth : 8 bits
Scan type : Progressive
Title : When.Trumpets.Fade.1998.720p.WEB-DL.AAC2.0.H264-FGT
Language : English
Default : Yes
Forced : No
Color range : Limited
Color primaries : BT.709
Transfer characteristics : BT.709
Matrix coefficients : BT.709

Audio #1
ID : 2
Format : AC-3
Format/Info : Audio Coding 3
Mode extension : CM (complete main)
Format settings, Endianness : Big
Codec ID : A_AC3
Duration : 1 h 32 min
Bit rate mode : Constant
Bit rate : 192 kb/s
Channel(s) : 2 channels
Channel positions : Front: L R
Sampling rate : 48.0 kHz
Frame rate : 31.250 FPS (1536 spf)
Compression mode : Lossy
Stream size : 127 MiB (6%)
Title : DVO
Language : Russian
Default : Yes
Forced : No

Audio #2
ID : 3
Format : AC-3
Format/Info : Audio Coding 3
Mode extension : CM (complete main)
Format settings, Endianness : Big
Codec ID : A_AC3
Duration : 1 h 32 min
Bit rate mode : Constant
Bit rate : 192 kb/s
Channel(s) : 2 channels
Channel positions : Front: L R
Sampling rate : 48.0 kHz
Frame rate : 31.250 FPS (1536 spf)
Compression mode : Lossy
Stream size : 127 MiB (6%)
Title : VO
Language : Russian
Default : No
Forced : No

Audio #3
ID : 4
Format : AC-3
Format/Info : Audio Coding 3
Mode extension : CM (complete main)
Format settings, Endianness : Big
Codec ID : A_AC3
Duration : 1 h 32 min
Bit rate mode : Constant
Bit rate : 192 kb/s
Channel(s) : 2 channels
Channel positions : Front: L R
Sampling rate : 48.0 kHz
Frame rate : 31.250 FPS (1536 spf)
Compression mode : Lossy
Stream size : 127 MiB (6%)
Title : AVO (Кашкин)
Language : Russian
Default : No
Forced : No

Audio #4
ID : 5
Format : AAC
Format/Info : Advanced Audio Codec
Format profile : LC
Codec ID : A_AAC
Duration : 1 h 32 min
Channel(s) : 2 channels
Channel positions : Front: L R
Sampling rate : 48.0 kHz
Frame rate : 46.875 FPS (1024 spf)
Compression mode : Lossy
Title : When.Trumpets.Fade.1998.720p.WEB-DL.AAC2.0.H264-FGT
Language : English
Default : No
Forced : No

Text
ID : 6
Format : UTF-8
Codec ID : S_TEXT/UTF8
Codec ID/Info : UTF-8 Plain Text
Language : English
Default : No
Forced : No
pb.wtf



Скачать Когда молчат фанфары через торрент http://pic1.kartinco.top/images/10/dcgsh.jpg Скачать фильм Когда молчат фанфары через торрент бесплантно в хорошем качестве Описание: Осенью 1944 года, когда казалось, что война на Западном фронте подходит к концу, и американцы надеялись к Рождеству вернуться ... 10 10 3
Торрент: Зарегистрирован [2016-09-25 18:45] · скачан: 181 раз
Статус: √ проверено
Размер: 2.07 GB
Как cкачать? Как скачать Когда молчат фанфары через торрент | qTorrent

28-11-2019 20:33  

Отключить всю рекламу на сайте

    Дорогой пользователь! Огромная просьба, поблагодарите релизера, оцените раздачу и оставьте свои комментарий, если Вы скачали Когда молчат фанфары через торрент бесплатно! Внесите свою лепту в развитие PiratBit!
    Комментировать посты могут только пользователи прошедшие не сложную регистрацию
    Показать сообщения:    

    Когда молчат фанфары через торрент
    Скачать бесплатно Когда молчат фанфары
    Когда молчат фанфары скачать торрент
    Когда молчат фанфары смотреть онлайн
    Cкачать фильм Когда молчат фанфары бесплатно
    Когда молчат фанфары скачать торрент в хорошем качестве
    Когда молчат фанфары смотреть онлайн бесплатно в хорошем качестве


    Вы не можете начинать темы
    Вы не можете отвечать на сообщения
    Вы не можете редактировать свои сообщения
    Вы не можете удалять свои сообщения
    Вы не можете голосовать в опросах
    Вы не можете прикреплять файлы к сообщениям
    Вы можете скачивать файлы