Ссылка на приватное зеркало нашего сайта всего за 1$. Внимание количество ограничено!!!

2 сезон

iTunes

1 сезон

1

2 сезон

2 сезон

iTunes

1 сезон

RePack

30

Новинка

ВАЖНО

ИГРА 18+

pack

RePack

MK11
pack

Забери бонус

RePack

jed

!!Акция!!

Alien_Rage

RePack

fifa19

RePack

Assassins Creed: Odyssey

RePack

NEED FOR SPEED™ PAYBACK

4 сезон

9 сезон

Бесстыжие 9 сезон

Все сериалы

все сериалы на PB.wtf

RePack

FAR CRY 5
  

Шагающий по ветру / Windwalker (Кит Мэрилл) [1980, драма, приключения, вестерн, BDRip 1080p by msltel] VO pb.wtf

Шагающий по ветру через торрент pb.wtf

Размер: 10.11 GB | Добавлен: 4 года 2 мес. назад | Торрент скачан:4 раза
Скачать  

26-09-2016 04:59 Шагающий по ветру Скачать торрент  

Название: Шагающий по ветру
Оригинальное название: Windwalker
Год выпуска: 1980
Страна: США
Жанр: драма, приключения, вестерн
Продолжительность: 01:46:45
Перевод: любительский одноголосый

Режиссёр: Кит Мэрилл

В ролях: Тревор Ховард, Ник Рамус, Джеймс Римар, Серена Хедин, Дасти МакКри, Сильвана Галлардо, Эмерсон Джон, Джейсон Стивенс, Роберта Дэхеррера, Иван Нараньо, Чиф Таг Смит, Фределия Смит, Ванни-Омни-Ска-Робидо, Доминик Галлегос, Джейсон Тахбо, Бенжамин Хубер, Дэвид Хубер, Руди Диас, Билли Драго, Гарольд Госс-Койот, Марвин Такес Хосе, Рой Дж. Кохе, Кертис Пауэрс

Описание: Покойный вождь племени возвращается к жизни, чтобы спасти свой народ от своего же сына, воспитанного в другом племени и ставшего заклятым врагом для бывших соплеменников...



Качество: BDRip 1080p Сравнение с исходником
Формат: MKV
Видео: MPEG-4 AVC, 13 Mбит/с,1444x1080, 23,976 кадра/с
Аудио 4: русский, AC3, 192 kbps, 2 ch, 48 kHz [любительский одноголосый, неполный]
Аудио 5: английский, AC3, 384 kbps, 2 ch, 48 kHz [оригинал]
Субтитры 1: русские
Субтитры 2: английские
Общее
Уникальный идентификатор : 239227186205772346447159833650457815466 (0xB3F97AEA9EC3FB65ADC67C5BAE8D29AA)
Полное имя : D:\Video\Шагающий по ветру.1980.BDRip.1080p.mkv
Формат : Matroska
Версия формата : Version 4 / Version 2
Размер файла : 10,1 Гбайт
Продолжительность : 1 ч. 46 м.
Общий поток : 13,6 Мбит/сек
Дата кодирования : UTC 2016-09-25 14:08:31
Программа кодирования : mkvmerge v8.2.0 ('World of Adventure') 64bit
Библиотека кодирования : libebml v1.3.1 + libmatroska v1.4.2

Видео
Идентификатор : 1
Формат : AVC
Формат/Информация : Advanced Video Codec
Профиль формата : High@L4.1
Параметр CABAC формата : Да
Параметр ReFrames формата : 4 кадра
Идентификатор кодека : V_MPEG4/ISO/AVC
Продолжительность : 1 ч. 46 м.
Битрейт : 13,0 Мбит/сек
Ширина : 1444 пикселя
Высота : 1080 пикселей
Соотношение сторон : 4:3
Режим частоты кадров : Постоянный
Частота кадров : 23,976 (24000/1001) кадра/сек
Цветовое пространство : YUV
Субдискретизация насыщенности : 4:2:0
Битовая глубина : 8 бит
Тип развёртки : Прогрессивная
Бит/(Пиксели*Кадры) : 0.347
Размер потока : 9,68 Гбайт (96%)
Библиотека кодирования : x264 core 146 r2538 121396c
Настройки программы : cabac=1 / ref=4 / deblock=1:-3:-3 / analyse=0x3:0x113 / me=umh / subme=10 / psy=1 / psy_rd=1.00:0.15 / mixed_ref=1 / me_range=32 / chroma_me=1 / trellis=2 / 8x8dct=1 / cqm=0 / deadzone=21,11 / fast_pskip=1 / chroma_qp_offset=-3 / threads=6 / lookahead_threads=1 / sliced_threads=0 / nr=0 / decimate=1 / interlaced=0 / bluray_compat=0 / constrained_intra=0 / bframes=12 / b_pyramid=2 / b_adapt=2 / b_bias=0 / direct=1 / weightb=1 / open_gop=0 / weightp=2 / keyint=230 / keyint_min=23 / scenecut=40 / intra_refresh=0 / rc_lookahead=40 / rc=crf / mbtree=0 / crf=19.0 / qcomp=0.60 / qpmin=0 / qpmax=69 / qpstep=4 / vbv_maxrate=40000 / vbv_bufsize=50000 / crf_max=0.0 / nal_hrd=none / filler=0 / ip_ratio=1.40 / pb_ratio=1.30 / aq=1:1.00
Язык : English
Default : Да
Forced : Нет

Аудио #1
Идентификатор : 2
Формат : AC-3
Формат/Информация : Audio Coding 3
Расширение режима : CM (complete main)
Параметр Endianness формата : Big
Идентификатор кодека : A_AC3
Продолжительность : 1 ч. 46 м.
Вид битрейта : Постоянный
Битрейт : 192 Кбит/сек
Каналы : 2 канала
Расположение каналов : Front: L R
Частота : 48,0 КГц
Частота кадров : 31,250 кадров/сек (1536 spf)
Метод сжатия : С потерями
Размер потока : 147 Мбайт (1%)
Заголовок : любительский одноголосый
Язык : Russian
Default : Да
Forced : Нет

Аудио #2
Идентификатор : 3
Формат : AC-3
Формат/Информация : Audio Coding 3
Расширение режима : CM (complete main)
Параметр Endianness формата : Big
Идентификатор кодека : A_AC3
Продолжительность : 1 ч. 46 м.
Вид битрейта : Постоянный
Битрейт : 384 Кбит/сек
Каналы : 2 канала
Расположение каналов : Front: L R
Частота : 48,0 КГц
Частота кадров : 31,250 кадров/сек (1536 spf)
Метод сжатия : С потерями
Размер потока : 293 Мбайт (3%)
Заголовок : original
Язык : English
Default : Нет
Forced : Нет

Текст #1
Идентификатор : 4
Формат : UTF-8
Идентификатор кодека : S_TEXT/UTF8
Идентификатор кодека/Информация : UTF-8 Plain Text
Продолжительность : 1 ч. 38 м.
Битрейт : 11 бит/сек
Count of elements : 185
Размер потока : 8,59 Кбайт (0%)
Заголовок : русские
Язык : Russian
Default : Нет
Forced : Нет

Текст #2
Идентификатор : 5
Формат : UTF-8
Идентификатор кодека : S_TEXT/UTF8
Идентификатор кодека/Информация : UTF-8 Plain Text
Продолжительность : 1 ч. 35 м.
Битрейт : 6 бит/сек
Count of elements : 141
Размер потока : 4,39 Кбайт (0%)
Заголовок : английские
Язык : English
Default : Нет
Forced : Нет
pb.wtf



Скачать Шагающий по ветру через торрент http://s011.radikal.ru/i318/1609/fc/28ee7c7c5440.jpg Скачать фильм Шагающий по ветру через торрент бесплантно в хорошем качестве Описание: Покойный вождь племени возвращается к жизни, чтобы спасти свой народ от своего же сына, воспитанного в другом племени и ставшего ... 10 10 3
Info! Золотая раздача, скачанное не засчитывается.
Торрент: Зарегистрирован [2016-09-26 04:59] · скачан: 4 раз
Статус: √ проверено
Размер: 10.11 GB
Как cкачать? Как скачать Шагающий по ветру через торрент | qTorrent

% Раздел Тема Автор DL S | L
Фильмы [HD 720p, 1080p] (Звук Cam, VO, DVO) [ 4.09 GB ] Шагающий по ветру / Windwalker [1980 BDRip 720p by msltel] VO msltel Скачать
1 | 0
Фильмы (Blu-ray, BD-Remux, HDDVD) [ 16.75 GB ] Шагающий по ветру / Windwalker [1980 BDRemux 1080p] VO Russian Mafia Скачать
1 | 0

28-11-2019 20:33  

Отключить всю рекламу на сайте

    Дорогой пользователь! Огромная просьба, поблагодарите релизера, оцените раздачу и оставьте свои комментарий, если Вы скачали Шагающий по ветру через торрент бесплатно! Внесите свою лепту в развитие PiratBit!
    Комментировать посты могут только пользователи прошедшие не сложную регистрацию
    Показать сообщения:    

    Шагающий по ветру через торрент
    Скачать бесплатно Шагающий по ветру
    Шагающий по ветру скачать торрент
    Шагающий по ветру смотреть онлайн
    Cкачать фильм Шагающий по ветру бесплатно
    Шагающий по ветру скачать торрент в хорошем качестве
    Шагающий по ветру смотреть онлайн бесплатно в хорошем качестве


    Вы не можете начинать темы
    Вы не можете отвечать на сообщения
    Вы не можете редактировать свои сообщения
    Вы не можете удалять свои сообщения
    Вы не можете голосовать в опросах
    Вы не можете прикреплять файлы к сообщениям
    Вы можете скачивать файлы