Ссылка на приватное зеркало нашего сайта всего за 1$. Внимание количество ограничено!!!

2 сезон

iTunes

1 сезон

1

iTunes

iTunes

iTunes

1 сезон

RePack

30

ИГРА 18+

pack

ВАЖНО

!!Акция!!

Alien_RageХит недели

RePack

MK11
pack

Забери бонус

RePack

jed

!!Акция!!

Alien_Rage

RePack

fifa19

RePack

Assassins Creed: Odyssey

RePack

NEED FOR SPEED™ PAYBACK

4 сезон

9 сезон

Бесстыжие 9 сезон

Все сериалы

все сериалы на PB.wtf

RePack

FAR CRY 5
  

Оседлавший кита / Whale Rider (Ники Каро) [2002, драма, семейный, BDRip 720p by msltel] MVO pb.wtf

Оседлавший кита через торрент pb.wtf

Размер: 4.34 GB | Добавлен: 4 года назад | Торрент скачан:69 раз
Скачать  

26-09-2016 06:05 Оседлавший кита Скачать торрент  

Название: Оседлавший кита
Оригинальное название: Whale Rider
Год выпуска: 2002
Страна: Германия, Новая Зеландия
Жанр: драма, семейный
Продолжительность: 01:41:23
Перевод: профессиональный многоголосый

Режиссёр: Ники Каро

В ролях: Киша Касл-Хьюз, Равири Паратене, Вики Хофтон, Клифф Кёртис, Грант Роа, Мана Таумауну, Рэйчел Хаус, Тэмми Дэвис, Мебел Воркава, Таунгароа Эмиль, Тахей Симпсон, Рои Таймана, Елизабет Скин, Тайрон Вайт, Рутене Спунер, Рикардо Девис, Джон Самнер, Сэм Вудс, Джейн О'Кейн

Описание: Действие фильма связано с древнейшей легендой маори о вожде древних времён Кахутиа Те Рани, который был спасён от мести своего завистливого брата Руатапу огромным китом Паикеа. Кит унёс героя на далёкую землю Аотеароа, где Каху принял имя своего спасителя Паикеа, осел и обзавёлся семьёй в местечке, впоследствии названном Уангара. Много веков спустя вождь племени Уангара, Коро, считал свою жизнь законченной, так как у него нет наследников мужского пола, которые бы имели право носить имя «Оседлавшего кита». По обычаю племени вождём может быть только мужчина, причём он обязательно должен быть ребёнком-первенцем у своих родителей. Его внук погиб вместе со своей матерью при родах близнецов, а его сын с горя покинул страну, оставив выжившую дочь на воспитание дедушки и бабушки. Внучка Коро по имени Пай долго боролась с предрассудками своего деда относительно неё и, в конце концов, решила доказать, что способна стать вождём, возглавить племя и носить гордое имя Паикеа. Для этого нужно совершить практически невозможное — овладеть боевым искусством предков, которое доступно только мужчинам, изучить древние заклинания, доказать, что ты обладаешь сильным духом, а ещё забраться на спину кита и прокатиться на виду у всех, оседлав океанского гиганта...



Качество: BDRip 720p Сравнение с исходником
Формат: MKV
Видео: MPEG-4 AVC, 4851 Кбит/с, 1280x544, 24 кадра/с
Аудио 1: русский, AC3, 384 kbps, 6 ch, 48 kHz [профессиональный многоголосый]
Аудио 2: английский, AC3, 448 kbps, 6 ch, 48 kHz
Аудио 3: немецкий, AC3, 448 kbps, 6 ch, 48 kHz
Субтитры: русские (Rodik)
Общее
Уникальный идентификатор : 192664253993097619071725842066709145416 (0x90F1C91CF08A98C3B2F42F8377D7E748)
Полное имя : D:\Video\Оседлавший кита.2002.BDRip.720p.mkv
Формат : Matroska
Версия формата : Version 4 / Version 2
Размер файла : 4,34 Гбайт
Продолжительность : 1 ч. 41 м.
Общий поток : 6134 Кбит/сек
Дата кодирования : UTC 2016-09-25 01:15:45
Программа кодирования : mkvmerge v8.2.0 ('World of Adventure') 64bit
Библиотека кодирования : libebml v1.3.1 + libmatroska v1.4.2

Видео
Идентификатор : 1
Формат : AVC
Формат/Информация : Advanced Video Codec
Профиль формата : High@L4.1
Параметр CABAC формата : Да
Параметр ReFrames формата : 9 кадров
Идентификатор кодека : V_MPEG4/ISO/AVC
Продолжительность : 1 ч. 41 м.
Битрейт : 4851 Кбит/сек
Ширина : 1280 пикселей
Высота : 544 пикселя
Соотношение сторон : 2,35:1
Режим частоты кадров : Постоянный
Частота кадров : 24,000 кадра/сек
Цветовое пространство : YUV
Субдискретизация насыщенности : 4:2:0
Битовая глубина : 8 бит
Тип развёртки : Прогрессивная
Бит/(Пиксели*Кадры) : 0.290
Размер потока : 3,44 Гбайт (79%)
Библиотека кодирования : x264 core 146 r2538 121396c
Настройки программы : cabac=1 / ref=9 / deblock=1:-1:-1 / analyse=0x3:0x113 / me=umh / subme=10 / psy=1 / psy_rd=1.00:0.15 / mixed_ref=1 / me_range=32 / chroma_me=1 / trellis=2 / 8x8dct=1 / cqm=0 / deadzone=21,11 / fast_pskip=1 / chroma_qp_offset=-3 / threads=6 / lookahead_threads=1 / sliced_threads=0 / nr=0 / decimate=1 / interlaced=0 / bluray_compat=0 / constrained_intra=0 / bframes=10 / b_pyramid=2 / b_adapt=2 / b_bias=0 / direct=1 / weightb=1 / open_gop=0 / weightp=2 / keyint=230 / keyint_min=23 / scenecut=40 / intra_refresh=0 / rc_lookahead=40 / rc=crf / mbtree=0 / crf=18.5 / qcomp=0.60 / qpmin=0 / qpmax=69 / qpstep=4 / vbv_maxrate=40000 / vbv_bufsize=50000 / crf_max=0.0 / nal_hrd=none / filler=0 / ip_ratio=1.40 / pb_ratio=1.30 / aq=1:1.00
Язык : English
Default : Да
Forced : Нет

Аудио #1
Идентификатор : 2
Формат : AC-3
Формат/Информация : Audio Coding 3
Расширение режима : CM (complete main)
Параметр Endianness формата : Big
Идентификатор кодека : A_AC3
Продолжительность : 1 ч. 41 м.
Вид битрейта : Постоянный
Битрейт : 384 Кбит/сек
Каналы : 6 каналов
Расположение каналов : Front: L C R, Side: L R, LFE
Частота : 48,0 КГц
Частота кадров : 31,250 кадров/сек (1536 spf)
Метод сжатия : С потерями
Размер потока : 278 Мбайт (6%)
Заголовок : MVO
Язык : Russian
Default : Да
Forced : Нет

Аудио #2
Идентификатор : 3
Формат : AC-3
Формат/Информация : Audio Coding 3
Расширение режима : CM (complete main)
Параметр Endianness формата : Big
Идентификатор кодека : A_AC3
Продолжительность : 1 ч. 41 м.
Вид битрейта : Постоянный
Битрейт : 448 Кбит/сек
Каналы : 6 каналов
Расположение каналов : Front: L C R, Side: L R, LFE
Частота : 48,0 КГц
Частота кадров : 31,250 кадров/сек (1536 spf)
Метод сжатия : С потерями
Размер потока : 325 Мбайт (7%)
Язык : English
Default : Нет
Forced : Нет

Аудио #3
Идентификатор : 4
Формат : AC-3
Формат/Информация : Audio Coding 3
Расширение режима : CM (complete main)
Параметр Endianness формата : Big
Идентификатор кодека : A_AC3
Продолжительность : 1 ч. 41 м.
Вид битрейта : Постоянный
Битрейт : 448 Кбит/сек
Каналы : 6 каналов
Расположение каналов : Front: L C R, Side: L R, LFE
Частота : 48,0 КГц
Частота кадров : 31,250 кадров/сек (1536 spf)
Метод сжатия : С потерями
Размер потока : 325 Мбайт (7%)
Язык : German
Default : Нет
Forced : Нет

Текст
Идентификатор : 5
Формат : UTF-8
Идентификатор кодека : S_TEXT/UTF8
Идентификатор кодека/Информация : UTF-8 Plain Text
Продолжительность : 1 ч. 36 м.
Битрейт : 35 бит/сек
Count of elements : 583
Размер потока : 24,9 Кбайт (0%)
Заголовок : русские (Rodik)
Язык : Russian
Default : Нет
Forced : Нет
pb.wtf



Скачать Оседлавший кита через торрент http://s017.radikal.ru/i410/1609/2d/e5e53db3e641.jpg Скачать фильм Оседлавший кита через торрент бесплантно в хорошем качестве Описание: Действие фильма связано с древнейшей легендой маори о вожде древних времён Кахутиа Те Рани, который был спасён от мести своего ... 10 10 5
Info! Золотая раздача, скачанное не засчитывается.
Торрент: Зарегистрирован [2016-09-26 06:05] · скачан: 69 раз
Статус: √ проверено
Размер: 4.34 GB
Как cкачать? Как скачать Оседлавший кита через торрент | qTorrent

% Раздел Тема Автор DL S | L
Фильмы [HD 720p, 1080p] (Хороший звук DUB, MVO) [ 10.29 GB ] Оседлавший кита / Whale Rider [2002 BDRip 1080p by msltel] MVO msltel Скачать
1 | 0

28-11-2019 20:33  

Отключить всю рекламу на сайте

    Дорогой пользователь! Огромная просьба, поблагодарите релизера, оцените раздачу и оставьте свои комментарий, если Вы скачали Оседлавший кита через торрент бесплатно! Внесите свою лепту в развитие PiratBit!
    Комментировать посты могут только пользователи прошедшие не сложную регистрацию
    Показать сообщения:    

    Оседлавший кита через торрент
    Скачать бесплатно Оседлавший кита
    Оседлавший кита скачать торрент
    Оседлавший кита смотреть онлайн
    Cкачать фильм Оседлавший кита бесплатно
    Оседлавший кита скачать торрент в хорошем качестве
    Оседлавший кита смотреть онлайн бесплатно в хорошем качестве


    Вы не можете начинать темы
    Вы не можете отвечать на сообщения
    Вы не можете редактировать свои сообщения
    Вы не можете удалять свои сообщения
    Вы не можете голосовать в опросах
    Вы не можете прикреплять файлы к сообщениям
    Вы можете скачивать файлы