Доктор Стрэндж

Лицензия

Добыча

Дубляж

Уэнсдэй

1 сезон

Тор

Дубляж

В эфире

Дубляж

Там, где раки поют

MVO

Властелин колец

1 сезон

Deluxe

pack

Рекомендуем

30

Пиратка

ВАЖНО

ВАЖНО

Ghostwire

Пиратка

jed

RePack

nioh2

RePack

RDR2

RePack

NEED FOR SPEED™ PAYBACK

RePack

скачать торрент

Кинопоиск HD

Острые козырьки 6 сезон

6 сезон

FAR CRY 6

RePack

скачать торрент

Лицензия

скачать торрент

MVO

1

1 сезон

скачать торрент

1 сезон

скачать торрент

Лицензия

  

Серебряная стрела / Silver Streak (Артур Хиллер) [1976, боевик, триллер, мелодрама, комедия, криминал, BDRemux 1080p] MVO, DVO, AVO

Серебряная стрела через торрент pb.wtf

Размер: 21.62 GB | Добавлен: 6 лет 2 мес. назад | Торрент скачан:4 раза
Смотреть онлайн | Скачать   

26-09-2016 13:56 Серебряная стрела Скачать торрент  

Серебряная стрела / Silver Streak
Страна: США
Производство: 20th Century Fox Film Corporation, Frank Yablans Presentations, Miller-Milkis Productions
Год выпуска: 1976
Жанр: боевик, триллер, мелодрама, комедия, криминал
Продолжительность: 01:53:37
Перевод: Профессиональный (многоголосый) + 2х Профессиональный (двухголосый) + Авторский (одноголосый)
Субтитры: английские

Режиссер: Артур Хиллер

В ролях: Джин Уайлдер, Джилл Клейбёрг, Ричард Прайор, Патрик МакГуэн, Нед Битти, Клифтон Джеймс, Рей Уолстон, Стефан Гираш, Лен Бирман

Описание: Издатель Джордж Колдуэлл садится на трансамериканский экспресс «Серебряная стрела», следующий из Лос-Анжелеса в Чикаго. В течение длительной поездки он надеется отдохнуть от трудов праведных, но не тут-то было. Джордж знакомится с прелестной Хилли Бернс, которая оказывается каким-то образом причастна к убийству, происшедшему здесь же, в поезде…



Качество: BDRemux 1080p
Формат: МКV
Видео кодек: AVC
Аудио кодек: АС3 | DTS
Видео: 1920x1080 (16:9), 23.976 fps, MPEG-4 AVC ~24.4 Мbps avg
Аудио №1: 48.0 kHz, AC3 Dolby Digital, 2/0 (L,R) ch, ~192 kbps | МVO / 1-й канал
Аудио №2: 48.0 kHz, AC3 Dolby Digital, 2/0 (L,R) ch, ~192 kbps | DVO / Ульпаней Эль-Ром
Аудио №3: 48.0 kHz, AC3 Dolby Digital, 2/0 (L,R) ch, ~192 kbps | DVO / НТВ
Аудио №4: 48.0 kHz, AC3 Dolby Digital, 2/0 (L,R) ch, ~192 kbps | АVO / Алексей Михалёв
Аудио №5: 48.0 kHz, Digital Theater Systems Master Audio, 3/2 (L,C,R,l,r) + LFE ch, ~3618 kbps / 24-bits | ENG

Формат субтитров: UTF-8 Plain Text

Дата премьеры (мир): 3 декабря 1976

Unique ID : 229756628724695225961583227761791946196 (0xACD98461DC53F360B37E68BC6CC54DD4)

Complete name : Silver Streak 1976 BDRemux 1080p.mkv

Format : Matroska

Format version : Version 4 / Version 2

File size : 21.6 GiB

Duration : 1h 53mn

Overall bit rate mode : Variable

Overall bit rate : 27.2 Mbps

Encoded date : UTC 2016-09-23 04:59:06

Writing application : mkvmerge v7.0.0 ('Where We Going') 64bit built on Jun 9 2014 15:16:27

Writing library : libebml v1.3.0 + libmatroska v1.4.1

DURATION : 01:53:36.843000000

NUMBER_OF_FRAMES : 639079

NUMBER_OF_BYTES : 3082292792

_STATISTICS_WRITING_APP : mkvmerge v7.0.0 ('Where We Going') 64bit built on Jun 9 2014 15:16:27

_STATISTICS_WRITING_DATE_UTC : 2016-09-23 04:59:06

_STATISTICS_TAGS : BPS DURATION NUMBER_OF_FRAMES NUMBER_OF_BYTES

Video

ID : 1

Format : AVC

Format/Info : Advanced Video Codec

Format profile : [email protected]

Format settings, CABAC : Yes

Format settings, ReFrames : 2 frames

Format settings, GOP : M=1, N=10

Codec ID : V_MPEG4/ISO/AVC

Duration : 1h 53mn

Bit rate mode : Variable

Width : 1 920 pixels

Height : 1 080 pixels

Display aspect ratio : 16:9

Frame rate mode : Constant

Frame rate : 23.976 fps

Color space : YUV

Chroma subsampling : 4:2:0

Bit depth : 8 bits

Scan type : Progressive

Default : Yes

Forced : No

Audio #1

ID : 2

Format : AC-3

Format/Info : Audio Coding 3

Mode extension : CM (complete main)

Format settings, Endianness : Big

Codec ID : A_AC3

Duration : 1h 53mn

Bit rate mode : Constant

Bit rate : 192 Kbps

Channel(s) : 2 channels

Channel positions : Front: L R

Sampling rate : 48.0 KHz

Compression mode : Lossy

Stream size : 156 MiB (1%)

Title : 1-й канал

Language : Russian

Default : Yes

Forced : No

Audio #2

ID : 3

Format : AC-3

Format/Info : Audio Coding 3

Mode extension : CM (complete main)

Format settings, Endianness : Big

Codec ID : A_AC3

Duration : 1h 53mn

Bit rate mode : Constant

Bit rate : 192 Kbps

Channel(s) : 2 channels

Channel positions : Front: L R

Sampling rate : 48.0 KHz

Compression mode : Lossy

Stream size : 156 MiB (1%)

Title : Ульпаней Эль-Ром

Language : Russian

Default : No

Forced : No

Audio #3

ID : 4

Format : AC-3

Format/Info : Audio Coding 3

Mode extension : CM (complete main)

Format settings, Endianness : Big

Codec ID : A_AC3

Duration : 1h 53mn

Bit rate mode : Constant

Bit rate : 192 Kbps

Channel(s) : 2 channels

Channel positions : Front: L R

Sampling rate : 48.0 KHz

Compression mode : Lossy

Stream size : 156 MiB (1%)

Title : НТВ

Language : Russian

Default : No

Forced : No

Audio #4

ID : 5

Format : AC-3

Format/Info : Audio Coding 3

Mode extension : CM (complete main)

Format settings, Endianness : Big

Codec ID : A_AC3

Duration : 1h 53mn

Bit rate mode : Constant

Bit rate : 192 Kbps

Channel(s) : 2 channels

Channel positions : Front: L R

Sampling rate : 48.0 KHz

Compression mode : Lossy

Stream size : 156 MiB (1%)

Title : Михалев

Language : Russian

Default : No

Forced : No

Audio #5

ID : 6

Format : DTS

Format/Info : Digital Theater Systems

Format profile : MA / Core

Mode : 16

Format settings, Endianness : Big

Codec ID : A_DTS

Duration : 1h 53mn

Bit rate mode : Variable

Bit rate : Unknown / 1 509 Kbps

Channel(s) : 6 channels

Channel positions : Front: L C R, Side: L R, LFE

Sampling rate : 48.0 KHz

Bit depth : 24 bits

Compression mode : Lossless / Lossy

Language : English

Default : No

Forced : No

Text

ID : 7

Format : UTF-8

Codec ID : S_TEXT/UTF8

Codec ID/Info : UTF-8 Plain Text

Language : English

Default : No

Forced : No

Menu

00:00:00.000 : :Chapter 1

00:12:08.102 : :Chapter 2

00:21:59.901 : :Chapter 3

00:33:28.965 : :Chapter 4

00:42:16.492 : :Chapter 5

00:54:47.325 : :Chapter 6

01:02:57.607 : :Chapter 7

01:11:50.389 : :Chapter 8

01:19:38.607 : :Chapter 9

01:29:58.768 : :Chapter 10

01:42:46.451 : :Chapter 11

01:51:38.692 : :Chapter 12

01:53:36.559 : :Chapter 13



Скачать Серебряная стрела через торрент http://img10.lostpic.net/2016/09/26/678980cdbd099372a035deb041510c67.png Скачать, смотреть онлайн Серебряная стрела бесплантно в хорошем качестве Описание: Издатель Джордж Колдуэлл садится на трансамериканский экспресс «Серебряная стрела», следующий из Лос-Анжелеса в Чикаго. В течение ... 10 10 2
Info! Золотая раздача, скачанное не засчитывается.
Торрент: Зарегистрирован [2016-09-26 13:56] · скачан: 4 раз
Статус: √ проверено
Размер: 21.62 GB
Как cкачать? Как скачать Серебряная стрела через торрент | UTorrent

% Раздел Тема Автор DL S | L
Фильмы [HD 720p, 1080p] (Хороший звук DUB, MVO) [ 4.88 GB ] Серебряная стрела / Silver Streak | MVO | 1080p еnvy Скачать
1 | 0

28-11-2019 20:33  


Отключить вcю реклaмy на сайте, в т.ч. и в плеере онлайн просмотра!

    Дорогой пользователь! Огромная просьба, поблагодарите релизера, оцените раздачу и оставьте свои комментарий, если Вы скачали Серебряная стрела через торрент бесплатно!!
    Комментировать посты могут только пользователи прошедшие не сложную регистрацию
    Показать сообщения:    


    Серебряная стрела через торрент
    Скачать бесплатно Серебряная стрела
    Серебряная стрела скачать торрент
    Серебряная стрела смотреть онлайн
    Cкачать фильм Серебряная стрела бесплатно
    Серебряная стрела скачать торрент в хорошем качестве
    Серебряная стрела смотреть онлайн бесплатно в хорошем качестве
    Вы не можете начинать темы
    Вы не можете отвечать на сообщения
    Вы не можете редактировать свои сообщения
    Вы не можете удалять свои сообщения
    Вы не можете голосовать в опросах
    Вы не можете прикреплять файлы к сообщениям
    Вы можете скачивать файлы
    Серебряная стрела / Silver Streak [1976, боевик, триллер, мелодрама, комедия, криминал, BDRemux 1080p] MVO, DVO, AVO смотреть онлайн, скачать торрент picoco.icu