Ссылка на приватное зеркало нашего сайта всего за 1$. Внимание количество ограничено!!!

2 сезон

iTunes

1 сезон

1

iTunes

iTunes

iTunes

1 сезон

RePack

30

ИГРА 18+

pack

ВАЖНО

!!Акция!!

Alien_RageХит недели

RePack

MK11
pack

Забери бонус

RePack

jed

!!Акция!!

Alien_Rage

RePack

fifa19

RePack

Assassins Creed: Odyssey

RePack

NEED FOR SPEED™ PAYBACK

4 сезон

9 сезон

Бесстыжие 9 сезон

Все сериалы

все сериалы на PB.wtf

RePack

FAR CRY 5
  

Замёрзшая из Майами / New in Town (Йонас Элмер) [2009, комедия, мелодрама, BDRip 1080p by msltel] DUB pb.wtf

Замёрзшая из Майами через торрент pb.wtf

Размер: 14.01 GB | Добавлен: 4 года назад | Торрент скачан:44 раза
Скачать  

27-09-2016 06:37 Замёрзшая из Майами Скачать торрент  

Название: Замёрзшая из Майами
Оригинальное название: New in Town
Год выпуска: 2009
Страна: США, Канада
Жанр: комедия, мелодрама
Продолжительность: 01:36:48
Перевод: дублированный

Режиссёр: Йонас Элмер

В ролях: Рене Зеллвегер, Гарри Конник мл., Шаван Фэллон, Дж.К. Симмонс, Майк О`Брайэн, Фрэнсис Конрой, Барбара Джеймс Смит, Джеймс Дархэм, Роберт Смолл, Вейн Никлас, Хилари Кэрролл, Нэнси Дрэйк, Мэрлин Бойл, Джимена Хойос, Сюзанн Кой, Лейф Линч

Описание: Люси Хилл любит роскошные платья, дорогие машины, и ей нравится карабкаться вверх по карьерной лестнице. Как-то раз из родного жаркого Майами её отправляют в командировку в холодную Миннесоту. Чтобы выполнить задание, Люси должна приспособиться к суровому климату и к местным жителям, которые не собираются оказывать ей теплый приём...



Качество: BDRip 1080p Сравнение с исходником
Формат: MKV
Видео: MPEG-4 AVC, 18.5 Mбит/с, 1920x1080, 23,976 кадра/с
Аудио 1: русский, DTS, 755 kbps, 6 ch, 48 kHz [дублированный]
Аудио 2: английский, DTS, 1509 kbps, 6 ch, 48 kHz [оригинал]
Субтитры 1: русские
Субтитры 2: английские
Общее
Уникальный идентификатор : 245323253428491621254579144570722763570 (0xB88F8A3C5781588FA257022F35DEC332)
Полное имя : D:\Video\Замёрзшая из Майами.2009.BDRip.1080p.mkv
Формат : Matroska
Версия формата : Version 4 / Version 2
Размер файла : 14,0 Гбайт
Продолжительность : 1 ч. 36 м.
Общий поток : 20,7 Мбит/сек
Дата кодирования : UTC 2016-09-27 00:31:05
Программа кодирования : mkvmerge v8.2.0 ('World of Adventure') 64bit
Библиотека кодирования : libebml v1.3.1 + libmatroska v1.4.2

Видео
Идентификатор : 1
Формат : AVC
Формат/Информация : Advanced Video Codec
Профиль формата : High@L4.1
Параметр CABAC формата : Да
Параметр ReFrames формата : 4 кадра
Идентификатор кодека : V_MPEG4/ISO/AVC
Продолжительность : 1 ч. 36 м.
Битрейт : 18,5 Мбит/сек
Ширина : 1920 пикселей
Высота : 1080 пикселей
Соотношение сторон : 16:9
Режим частоты кадров : Постоянный
Частота кадров : 23,976 (24000/1001) кадра/сек
Цветовое пространство : YUV
Субдискретизация насыщенности : 4:2:0
Битовая глубина : 8 бит
Тип развёртки : Прогрессивная
Бит/(Пиксели*Кадры) : 0.371
Размер потока : 12,5 Гбайт (89%)
Библиотека кодирования : x264 core 146 r2538 121396c
Настройки программы : cabac=1 / ref=4 / deblock=1:-1:-1 / analyse=0x3:0x113 / me=umh / subme=10 / psy=1 / psy_rd=1.00:0.15 / mixed_ref=1 / me_range=32 / chroma_me=1 / trellis=2 / 8x8dct=1 / cqm=0 / deadzone=21,11 / fast_pskip=1 / chroma_qp_offset=-3 / threads=6 / lookahead_threads=1 / sliced_threads=0 / nr=0 / decimate=1 / interlaced=0 / bluray_compat=0 / constrained_intra=0 / bframes=10 / b_pyramid=2 / b_adapt=2 / b_bias=0 / direct=1 / weightb=1 / open_gop=0 / weightp=2 / keyint=230 / keyint_min=23 / scenecut=40 / intra_refresh=0 / rc_lookahead=40 / rc=crf / mbtree=0 / crf=18.0 / qcomp=0.60 / qpmin=0 / qpmax=69 / qpstep=4 / vbv_maxrate=40000 / vbv_bufsize=50000 / crf_max=0.0 / nal_hrd=none / filler=0 / ip_ratio=1.40 / pb_ratio=1.30 / aq=1:1.00
Язык : English
Default : Да
Forced : Нет

Аудио #1
Идентификатор : 2
Формат : DTS
Формат/Информация : Digital Theater Systems
Режим : 16
Параметр Endianness формата : Big
Идентификатор кодека : A_DTS
Продолжительность : 1 ч. 36 м.
Вид битрейта : Постоянный
Битрейт : 755 Кбит/сек
Каналы : 6 каналов
Расположение каналов : Front: L C R, Side: L R, LFE
Частота : 48,0 КГц
Частота кадров : 93,750 кадра/сек (512 spf)
Битовая глубина : 24 бит
Метод сжатия : С потерями
Размер потока : 522 Мбайт (4%)
Заголовок : DUB
Язык : Russian
Default : Да
Forced : Нет

Аудио #2
Идентификатор : 3
Формат : DTS
Формат/Информация : Digital Theater Systems
Режим : 16
Параметр Endianness формата : Big
Идентификатор кодека : A_DTS
Продолжительность : 1 ч. 36 м.
Вид битрейта : Постоянный
Битрейт : 1509 Кбит/сек
Каналы : 6 каналов
Расположение каналов : Front: L C R, Side: L R, LFE
Частота : 48,0 КГц
Частота кадров : 93,750 кадра/сек (512 spf)
Битовая глубина : 24 бит
Метод сжатия : С потерями
Размер потока : 1,02 Гбайт (7%)
Заголовок : original
Язык : English
Default : Нет
Forced : Нет

Текст #1
Идентификатор : 4
Формат : UTF-8
Идентификатор кодека : S_TEXT/UTF8
Идентификатор кодека/Информация : UTF-8 Plain Text
Продолжительность : 1 ч. 30 м.
Битрейт : 78 бит/сек
Count of elements : 792
Размер потока : 51,7 Кбайт (0%)
Заголовок : русские
Язык : Russian
Default : Нет
Forced : Нет

Текст #2
Идентификатор : 5
Формат : UTF-8
Идентификатор кодека : S_TEXT/UTF8
Идентификатор кодека/Информация : UTF-8 Plain Text
Продолжительность : 1 ч. 29 м.
Битрейт : 55 бит/сек
Count of elements : 1063
Размер потока : 36,7 Кбайт (0%)
Заголовок : английские
Язык : English
Default : Нет
Forced : Нет
pb.wtf



Скачать Замёрзшая из Майами через торрент http://s019.radikal.ru/i630/1609/f3/83a3dfef528d.jpg Скачать фильм Замёрзшая из Майами через торрент бесплантно в хорошем качестве Описание: Люси Хилл любит роскошные платья, дорогие машины, и ей нравится карабкаться вверх по карьерной лестнице. Как-то раз из родного ... 8.2 10 5
Info! Золотая раздача, скачанное не засчитывается.
Торрент: Зарегистрирован [2016-09-27 06:37] · скачан: 44 раз
Статус: √ проверено
Размер: 14.01 GB
Как cкачать? Как скачать Замёрзшая из Майами через торрент | qTorrent

% Раздел Тема Автор DL S | L
Фильмы [HD 720p, 1080p] (Хороший звук DUB, MVO) [ 4.47 GB ] Замёрзшая из Майами / New in Town [2009 BDRip 720p by msltel] DUB msltel Скачать
1 | 0

28-11-2019 20:33  

Отключить всю рекламу на сайте

27-09-2016 14:32 Замёрзшая из Майами Скачать торрент  

ох и рожа распухшая на 2 скрине,бухает наверно Зеллвегерpb.wtf



    Дорогой пользователь! Огромная просьба, поблагодарите релизера, оцените раздачу и оставьте свои комментарий, если Вы скачали Замёрзшая из Майами через торрент бесплатно! Внесите свою лепту в развитие PiratBit!
    Комментировать посты могут только пользователи прошедшие не сложную регистрацию
    Показать сообщения:    

    Замёрзшая из Майами через торрент
    Скачать бесплатно Замёрзшая из Майами
    Замёрзшая из Майами скачать торрент
    Замёрзшая из Майами смотреть онлайн
    Cкачать фильм Замёрзшая из Майами бесплатно
    Замёрзшая из Майами скачать торрент в хорошем качестве
    Замёрзшая из Майами смотреть онлайн бесплатно в хорошем качестве


    Вы не можете начинать темы
    Вы не можете отвечать на сообщения
    Вы не можете редактировать свои сообщения
    Вы не можете удалять свои сообщения
    Вы не можете голосовать в опросах
    Вы не можете прикреплять файлы к сообщениям
    Вы можете скачивать файлы