Ссылка на приватное зеркало нашего сайта всего за 1$. Внимание количество ограничено!!!

2 сезон

iTunes

1 сезон

1

2 сезон

2 сезон

iTunes

1 сезон

RePack

30

Ultimate

ВАЖНО

ИГРА 18+

pack

RePack

MK11
pack

Забери бонус

RePack

jed

!!Акция!!

Alien_Rage

RePack

fifa19

RePack

Assassins Creed: Odyssey

RePack

NEED FOR SPEED™ PAYBACK

4 сезон

9 сезон

Бесстыжие 9 сезон

Все сериалы

все сериалы на PB.wtf

RePack

FAR CRY 5
  

Падающая вода / Потоки / Falling Water / Сезон 1 / Серии 1-10 из 10 (Джек Бендер / Jack Bender, Гай Ферленд / Guy Ferland, Хуан Карлос Фреснадильо / Juan Carlos Fresnadillo) [2016 , США, драма, WEB-DLRip-AVC] MVO [BaibaKo] pb.wtf

Падающая вода через торрент pb.wtf

Размер: 8.5 GB | Добавлен: 3 года 11 мес. назад | Торрент скачан:32 раза
Скачать  

27-09-2016 11:04 Падающая вода Скачать торрент  


Падающая вода / Потоки / Falling Water



  • Год выпуска: 2016
  • Страна: США
  • Жанр: драма
  • Продолжительность: 00:56:09 (Серия)
  • Перевод: Профессиональный многоголосый [BaibaKo]
  • Режиссер: Джек Бендер / Jack Bender, Гай Ферленд / Guy Ferland, Хуан Карлос Фреснадильо / Juan Carlos Fresnadillo
  • В ролях:

    Дэвид Аджала (Burton), Лиззи Брошере (Tess), Уилл Юн Ли (Take), Анна Вуд (The Woman in Red), Francesca Faridany (Helena Swift), Труди Стайлер (Charlotte), Бен Ван Берген (Paranoid Belgian), Джои Озенн (Tweaker Davey), Шайло Фернандес (Levon), Пуйа Мохсени (Dr. Duria), Javon Jones (Neighborhood Kid), Кай Леннокс (Woody Hammond)


  • Три незнакомца постепенно осознают, что им снятся отдельные фрагменты общего сна. Каждый из них должен выполнить собственный квест - один ищет пропавшую подружку, второй - потерянного ребенка, третий - лекарство, которое выведет из кататонического ступора его мать, а тем временем все ключи к квестам находятся в их общем сне. Чем глубже они погружаются, тем сильнее осознают, что их истинная миссия намного важнее, чем личные поиски, и что образы, возникшие в их общем сне, возможно, содержат главную подсказку о судьбе мира.
  • Рейтинг:



  • Качество: WEB-DLRip-AVC
  • Формат: :MPEG-4
  • Видео кодек: AVC
  • Аудио кодек: AC3
  • Видео: 1024x576 (16:9), 2000 kbps, 23,976 fps, 0,141 bpp
  • Аудио №1: русский / 5.1 / 48 kHz / 384 kbps / 16 bit |[BaibaKo]|
  • Аудио №2: английский / 5.1 / 48 kHz / 384 kbps / 16 bit
  • Релиз от: GEKADOL

    Внимание! Раздача ведётся путём добавления новых серий; при каждом добавлении создаётся новый торрент. Чтобы начать докачку новой серии, пользователям необходимо сделать следующее:
    (1) остановить скачивание,
    (2) удалить старый торрент у себя из клиента (старые серии удалять не надо),
    (3) скачать новый торрент и запустить его у себя в клиенте вместо старого, при этом указать клиенту путь в старую папку куда и должно происходить скачивание новых серий.
    Ваш клиент при этом должен произвести хеширование (проверку) старой папки (если не производит сам - помогите ему сделать это), и будет докачивать только те серии которых у вас ещё нет. Старые серии при этом не удаляются, а продолжают раздаваться!
    Eсли вы уже удалили старые серии, то предотвратить повторную закачку старых серий можно, отжав галочку в соответствующих местах при запуске нового торрента. По возможности, желательно не удалять старые серии как можно дольше чтобы релизёр не столько продолжал раздавать старые серии, а смог сконцентрироваться на новых.

    General
    Complete name : H:\Падающая вода (Falling Water 1)\Falling.Water.s01e01.WEB-DLRip-AVC.Rus.Eng.BaibaKo.tv.mp4
    Format : MPEG-4
    Format profile : Base Media
    Codec ID : isom (isom/iso2/avc1/mp41)
    File size : 1.06 GiB
    Duration : 56 min
    Overall bit rate : 2 692 kb/s
    Writing application : XviD4PSP 7.0.299 DAILY
    HDVideo : Yes
    encoding_info : MATROSKA / WEBM > MP4 Произвольный / H264 > X264 CBR 2000kbps HQ / AC3 > AC3 CBR 384kbps / AC3 > AC3 CBR 384kbps

    Video
    ID : 1
    Format : AVC
    Format/Info : Advanced Video Codec
    Format profile : High@L3.1
    Format settings, CABAC : Yes
    Format settings, ReFrames : 4 frames
    Codec ID : avc1
    Codec ID/Info : Advanced Video Coding
    Duration : 56 min
    Bit rate : 2 000 kb/s
    Width : 1 024 pixels
    Height : 576 pixels
    Display aspect ratio : 16:9
    Frame rate mode : Constant
    Frame rate : 23.976 (24000/1001) FPS
    Color space : YUV
    Chroma subsampling : 4:2:0
    Bit depth : 8 bits
    Scan type : Progressive
    Bits/(Pixel*Frame) : 0.141
    Stream size : 771 MiB (71%)
    Writing library : x264 core 148 r2705M 3f5ed56
    Encoding settings : cabac=1 / ref=3 / deblock=1:-1:-1 / analyse=0x3:0x133 / me=hex / subme=7 / psy=1 / psy_rd=1.00:0.20 / mixed_ref=1 / me_range=16 / chroma_me=1 / trellis=1 / 8x8dct=1 / cqm=0 / deadzone=21,11 / fast_pskip=1 / chroma_qp_offset=-3 / threads=5 / lookahead_threads=1 / sliced_threads=0 / nr=0 / decimate=1 / interlaced=0 / bluray_compat=0 / constrained_intra=0 / bframes=3 / b_pyramid=2 / b_adapt=2 / b_bias=0 / direct=3 / weightb=1 / open_gop=0 / weightp=2 / keyint=230 / keyint_min=23 / scenecut=40 / intra_refresh=0 / rc_lookahead=40 / rc=cbr / mbtree=1 / bitrate=2000 / ratetol=1.0 / qcomp=0.60 / qpmin=0 / qpmax=69 / qpstep=4 / vbv_maxrate=2000 / vbv_bufsize=2000 / nal_hrd=none / filler=0 / ip_ratio=1.40 / aq=1:1.00

    Audio #1
    ID : 2
    Format : AC-3
    Format/Info : Audio Coding 3
    Mode extension : CM (complete main)
    Format settings, Endianness : Big
    Codec ID : ac-3
    Duration : 56 min
    Bit rate mode : Constant
    Bit rate : 384 kb/s
    Channel(s) : 6 channels
    Channel positions : Front: L C R, Side: L R, LFE
    Sampling rate : 48.0 kHz
    Frame rate : 31.250 FPS (1536 spf)
    Bit depth : 16 bits
    Compression mode : Lossy
    Stream size : 154 MiB (14%)
    Language : Russian
    Default : Yes
    Alternate group : 1

    Audio #2
    ID : 3
    Format : AC-3
    Format/Info : Audio Coding 3
    Mode extension : CM (complete main)
    Format settings, Endianness : Big
    Codec ID : ac-3
    Duration : 56 min
    Bit rate mode : Constant
    Bit rate : 384 kb/s
    Channel(s) : 6 channels
    Channel positions : Front: L C R, Side: L R, LFE
    Sampling rate : 48.0 kHz
    Frame rate : 31.250 FPS (1536 spf)
    Bit depth : 16 bits
    Compression mode : Lossy
    Stream size : 154 MiB (14%)
    Language : English
    Default : No
    Alternate group : 1



    Скриншоты:
    скриншот   скриншот   скриншот   скриншот   скриншот   скриншот   скриншот  
    скриншот  

    Раздача ведётся путём добавления новых серий. Добавлена 10 серия (27.12.2016).Просьба перекачать торрент файл.

    pb.wtf



  • Скачать Падающая вода через торрент http://pic1.kartinco.top/images/10/lwr35.jpg Скачать фильм Падающая вода через торрент бесплантно в хорошем качестве qw.png Три незнакомца постепенно осознают, что им снятся отдельные фрагменты общего сна. Каждый из них должен выполнить собственный квест ... 7.2 10 10
    Info! Серебряная раздача, засчитывается только 50% скачанного.
    Торрент: Зарегистрирован [2016-12-27 01:32] · скачан: 32 раз
    Статус: √ проверено
    Размер: 8.5 GB
    Как cкачать? Как скачать Падающая вода через торрент | qTorrent

    % Раздел Тема Автор DL S | L
    Зарубежные сериалы [ 18.71 GB ] Падающая вода / Поток сознания / Falling Water / Сезон 2 / Серии 1-10 из 10 [2018 WEB-DLRip 1080p] [MVO] killermax2013 Скачать
    1 | 0
    Зарубежные сериалы [ 5.02 GB ] Падающая вода / Поток сознания / Falling Water / Сезон 2 / Серии 1-10 из 10 [2018 WEBRip] [MVO] killermax2013 Скачать
    1 | 0
    Зарубежные сериалы [ 4.71 GB ] Падающая вода / Потоки / Falling Water / Сезон: 2 / Серии 1-10 из 10 [2018 WEBRip] MVO [BaibaKo] GEKADOL Скачать
    1 | 0
    Зарубежные сериалы [ 18.8 GB ] Падающая вода / Поток сознания / Falling Water / Сезон 1 / Серии 1-10 из 10 [2016 WEB-DL 1080p] [MVO] killermax2013 Скачать
    1 | 0
    Зарубежные сериалы [ 5.6 GB ] Падающая вода / Поток сознания / Falling Water / Сезон 1 / Серии 1-10 из 10 [2016 WEB-DLRip] [MVO] killermax2013 Скачать
    1 | 0


    Последний раз редактировалось: GEKADOL (2016-12-27 01:41), всего редактировалось 12 раз(а)

    28-11-2019 20:33  

    Отключить всю рекламу на сайте

    27-09-2016 12:12 Падающая вода Скачать торрент  

    че-то драма фантастикой попахивает) спасибо GEKADOL, нашему светочу, так сказать, в мире сериалов)pb.wtf



    28-09-2016 03:30 Падающая вода Скачать торрент  

    tamburetko писал(а):

    че-то драма фантастикой попахивает) спасибо GEKADOL, нашему светочу, так сказать, в мире сериалов)

    pb.wtf



    17-10-2016 04:11 Падающая вода Скачать торрент  

    При выходе качества лучше, вторая серия будет заменена pb.wtf



    22-11-2016 14:51 Падающая вода Скачать торрент  

    Буду ждать выхода всех серий, а то забываешь содержание предыдущей серии . Сериал интересный и с 99% вероятностью добавлю в коллекцию ! Автору спасибо !pb.wtf



    20-12-2016 05:52 Падающая вода Скачать торрент  

    Chuvackk писал(а):

    Буду ждать выхода всех серий, а то забываешь содержание предыдущей серии . Сериал интересный и с 99% вероятностью добавлю в коллекцию ! Автору спасибо !

    Такая же беда))) Тоже жду когда серий побольше выходит)) pb.wtf



    27-12-2016 03:14 Падающая вода Скачать торрент  

    Вот и все) Всем спасибо!pb.wtf



      Дорогой пользователь! Огромная просьба, поблагодарите релизера, оцените раздачу и оставьте свои комментарий, если Вы скачали Падающая вода через торрент бесплатно! Внесите свою лепту в развитие PiratBit!
      Комментировать посты могут только пользователи прошедшие не сложную регистрацию
      Показать сообщения:    

      Падающая вода через торрент
      Скачать бесплатно Падающая вода
      Падающая вода скачать торрент
      Падающая вода смотреть онлайн
      Cкачать фильм Падающая вода бесплатно
      Падающая вода скачать торрент в хорошем качестве
      Падающая вода смотреть онлайн бесплатно в хорошем качестве


      Вы не можете начинать темы
      Вы не можете отвечать на сообщения
      Вы не можете редактировать свои сообщения
      Вы не можете удалять свои сообщения
      Вы не можете голосовать в опросах
      Вы не можете прикреплять файлы к сообщениям
      Вы можете скачивать файлы