Ссылка на приватное зеркало всего за 1$. Внимание количество ограничено!!!

OK

1+1

iTunes

мы

OK

1

WEB-DLRip

Джокер

Пифагор

Ведьмак / The Witcher сериал

Лицензия

ПШазам

ОК

Оно 2

iTunes

30
pack

Вам бонус

ВАЖНО

!!Акция!!

Alien_RageХит недели

RePack

Resident Evil 21

ИГРА 18+

pack

RePack

jed

!!Акция!!

Alien_Rage

RePack

fifa19

RePack

Assassins Creed: Odyssey

RePack

NEED FOR SPEED™ PAYBACK

4 сезон

9 сезон

Бесстыжие 9 сезон

Все сериалы

все сериалы на PB.wtf

RePack

FAR CRY 5
  

Жизнь за брата / The Heavy (Маркус Уоррен) [2010 г., триллер, BDRip] MVO [R5] pb.wtf

Жизнь за брата через торрент pb.wtf

Размер: 1.46 GB | Добавлен: 3 года 3 мес. назад | Торрент скачан:17 раз
Скачать  

27-09-2016 11:15 Жизнь за брата Скачать торрент  

Жизнь за брата / The Heavy
Год выпуска: 2010
Страна: Великобритания, США
Жанр: триллер
Продолжительность: 01:41:46
Перевод: Профессиональный (многоголосый) [R5]
Субтитры: отсутствуют

Режиссер: Маркус Уоррен

rating

В ролях:

Гари Стретч, Винни Джонс, Стивен Ри, Шаннин Соссамон, Кристофер Ли, Ли Райан, Эдриан Пол, Джин Марш, Сэди Фрост, Джофф Белл

Описание:

Герой фильма – бандит-«шестёрка» Бутс, который в уплату долга своему боссу должен убить собственного брата-политика. По ходу реализации плана в пустой квартире из которой должен быть произведен роковой выстрел случайно оказывается симпатичная студентка Клэр. Так же дело осложняется тем, что по следу потенциального киллера идёт коррумпированный детектив Данн...

Качество: BDRip
Формат: AVI
Видео кодек: XviD
Аудио кодек: AC3

Видео: 704x 384 (1,85:1), 23,976 fps, XviD build 50 ~ 1656 kbps avg, 0.256 bit/pixel
Аудио#1: 48 kHz, AC3 Dolby Digital, 3/2 (L,C,R,l,r) + LFE ch, ~384 kbps
скриншот  скриншот  скриншот  скриншот  
Общее
Полное имя : D:\The.Heavy.2010.BDRip.XviD-denashekkk.avi\The.Heavy.2010.BDRip.XviD-denashekkk.avi
Формат : AVI
Формат/Информация : Audio Video Interleave
Размер файла : 1,46 Гбайт
Продолжительность : 1 ч. 41 м.
Общий поток : 2049 Кбит/сек
Программа кодирования : VirtualDubMod 1.5.10.2 (build 2540/release)
Библиотека кодирования : VirtualDubMod build 2540/release

Видео
Идентификатор : 0
Формат : MPEG-4 Visual
Профиль формата : Advanced Simple@L5
Параметр BVOP формата : 2
Параметр QPel формата : Нет
Параметр GMC формата : Без точки перехода
Параметр матрицы формата : Выборочная
Идентификатор кодека : XVID
Идентификатор кодека/Подсказка : XviD
Продолжительность : 1 ч. 41 м.
Битрейт : 1656 Кбит/сек
Ширина : 704 пикселя
Высота : 384 пикселя
Соотношение сторон : 1,85:1
Частота кадров : 23,976 (24000/1001) кадра/сек
Цветовое пространство : YUV
Субдискретизация насыщенности : 4:2:0
Битовая глубина : 8 бит
Тип развёртки : Прогрессивная
Метод сжатия : С потерями
Бит/(Пиксели*Кадры) : 0.256
Размер потока : 1,18 Гбайт (81%)
Библиотека кодирования : XviD 65

Аудио
Идентификатор : 1
Формат : AC-3
Формат/Информация : Audio Coding 3
Расширение режима : CM (complete main)
Параметр Endianness формата : Big
Идентификатор кодека : 2000
Продолжительность : 1 ч. 41 м.
Вид битрейта : Постоянный
Битрейт : 384 Кбит/сек
Каналы : 6 каналов
Расположение каналов : Front: L C R, Side: L R, LFE
Частота : 48,0 КГц
Частота кадров : 31,250 кадров/сек (1536 spf)
Метод сжатия : С потерями
Размер потока : 280 Мбайт (19%)
Выравнивание : Разделение по промежуткам
Продолжительность промежутка : 42 мс. (1,00 видеокадр)
Время предзагрузки промежутка : 500 мс.

Общее
Полное имя : D:\The.Heavy.2010.BDRip.XviD-denashekkk.avi\The.Heavy.2010.BDRip.XviD-denashekkk.avi.torrent
Размер файла : 15,1 Кбайт
pb.wtf



Скачать Жизнь за брата через торрент http://pic1.kartinco.top/images/10/npad3.jpg Скачать фильм Жизнь за брата через торрент бесплантно в хорошем качестве Описание: Герой фильма – бандит-«шестёрка» Бутс, который в уплату долга своему боссу должен убить собственного брата-политика. По ходу ... 10 10 4
Торрент: Зарегистрирован [2016-09-27 11:15] · скачан: 17 раз
Статус: √ проверено
Размер: 1.46 GB
Как cкачать? Как скачать Жизнь за брата через торрент | qTorrent

% Раздел Тема Автор DL S | L
Фильмы (Blu-ray, BD-Remux, HDDVD) [ 19.11 GB ] Жизнь за брата / The Heavy [2010 BDRemux 1080р] MVO Russian Mafia Скачать
1 | 0
Фильмы 2010 [ 4.64 GB ] Жизнь за брата / The Heavy [2010 BDRip 720p] MVO orton Скачать
1 | 0
Фильмы 2010 [ 1.45 GB ] Жизнь за брата / The Heavy [2010 DVDRip лицензия] makarevich Скачать
1 | 0


Последний раз редактировалось: bober100 (2016-09-27 12:26), всего редактировалось 4 раз(а)

28-11-2019 20:33  

Отключить всю рекламу на сайте

    Дорогой пользователь! Огромная просьба, поблагодарите релизера, оцените раздачу и оставьте свои комментарий, если Вы скачали Жизнь за брата через торрент бесплатно! Внесите свою лепту в развитие PiratBit!
    Комментировать посты могут только пользователи прошедшие не сложную регистрацию
    Показать сообщения:    

    Жизнь за брата через торрент
    Скачать бесплатно Жизнь за брата
    Жизнь за брата скачать торрент
    Жизнь за брата смотреть онлайн
    Cкачать фильм Жизнь за брата бесплатно
    Жизнь за брата скачать торрент в хорошем качестве
    Жизнь за брата смотреть онлайн бесплатно в хорошем качестве


    Вы не можете начинать темы
    Вы не можете отвечать на сообщения
    Вы не можете редактировать свои сообщения
    Вы не можете удалять свои сообщения
    Вы не можете голосовать в опросах
    Вы не можете прикреплять файлы к сообщениям
    Вы можете скачивать файлы