Ссылка на приватное зеркало нашего сайта всего за 1$. Внимание количество ограничено!!!

2 сезон

iTunes

1 сезон

1

2 сезон

2 сезон

iTunes

1 сезон

RePack

30

Ultimate

ВАЖНО

ИГРА 18+

pack

RePack

MK11
pack

Забери бонус

RePack

jed

!!Акция!!

Alien_Rage

RePack

fifa19

RePack

Assassins Creed: Odyssey

RePack

NEED FOR SPEED™ PAYBACK

4 сезон

9 сезон

Бесстыжие 9 сезон

Все сериалы

все сериалы на PB.wtf

RePack

FAR CRY 5
  

Полиция Чикаго / Chicago P.D. / Сезон: 4 / Серии: 1-23 (23) (Джо Чаппелль, Марк Тинкер) [2016, боевик, драма, WEB-DLRip] [VO] (Денис Шадинский) pb.wtf

Полиция Чикаго через торрент pb.wtf

Размер: 13.66 GB | Добавлен: 2 года 1 мес. назад | Торрент скачан:40 раз
Скачать  

27-09-2016 15:15 Полиция Чикаго Скачать торрент  

Полиция Чикаго / Chicago P.D.
Год выпуска: 2016
Страна: США
Жанр: Детектив, драма
Продолжительность: 00:43:00
Перевод: Профессиональный (одноголосый закадровый) Денис Шадинский

Режиссёр: Джо Чаппелль, Марк Тинкер

В ролях: Джейсон Бех, Джон Седа, София Буш, Джесси Ли Соффер, Патрик Флюгер, Марина Скверсьяти, Элиас Котеас, Эми Мортон, Ларойс Хоукинс, Ли Цзюнь Ли

Описание: Полицейский департамент Чикаго (Chicago P.D.) — американский телесериал, созданный Дереком Хаасом и Майклом Брандтом, который является спин-оффом шоу «Пожарные Чикаго». В центре сюжета находятся работники полицейского департамента города Чикаго, в частности две группы полицейских, которые находятся на разных ступенях власти.

ratingскриншот  

Качество: WEB-DLRip
Формат: AVI
Видео: 720x400 (16:9), 23.976 fps, XviD build 73, 1801 Kbps, 0.26 bits/pixel
Аудио: 48 kHz, AC3 Dolby Digital, 2 ch, 192 Kbps
Субтитры: Отсутствуют
General
Complete name : Downloads\Chicago.P.D.S04.2016.400p.MegaPeer\Chicago.P.D.S04E01.avi
Format : AVI
Format/Info : Audio Video Interleave
File size : 598 MiB
Duration : 41mn 44s
Overall bit rate : 2 002 Kbps
Writing application : VirtualDubMod 1.5.10.3 | www.virtualdub-fr.org || (build 2550/release)
Writing library : VirtualDubMod build 2550/release
Video #0
ID : 0
Format : MPEG-4 Visual
Format profile : Advanced Simple@L5
Format settings, BVOP : 1
Format settings, QPel : No
Format settings, GMC : No warppoints
Format settings, Matrix : Custom
Codec ID : XVID
Codec ID/Hint : XviD
Duration : 41mn 44s
Bit rate : 1 801 Kbps
Width : 720 pixels
Height : 400 pixels
Display aspect ratio : 16:9
Frame rate : 23.976 fps
Color space : YUV
Chroma subsampling : 4:2:0
Bit depth : 8 bits
Scan type : Progressive
Compression mode : Lossy
Bits/(Pixel*Frame) : 0.261
Stream size : 538 MiB (90%)
Writing library : XviD 73
Audio #1
ID : 1
Format : AC-3
Format/Info : Audio Coding 3
Mode extension : CM (complete main)
Format settings, Endianness : Big
Codec ID : 2000
Duration : 41mn 44s
Bit rate mode : Constant
Bit rate : 192 Kbps
Channel(s) : 2 channels
Channel positions : Front: L R
Sampling rate : 48.0 KHz
Bit depth : 16 bits
Compression mode : Lossy
Stream size : 57.3 MiB (10%)
Alignment : Split accross interleaves
Interleave, duration : 42 ms (1.00 video frame)
Interleave, preload duration : 500 ms
скриншот  скриншот  скриншот  
pb.wtf



Скачать Полиция Чикаго через торрент http://i90.fastpic.ru/big/2017/0218/44/48e2d1d77b7aaddefe8fc886a9dfa844.jpg Скачать фильм Полиция Чикаго через торрент бесплантно в хорошем качестве Описание: Полицейский департамент Чикаго (Chicago P.D.) — американский телесериал, созданный Дереком Хаасом и Майклом Брандтом, который ... 10 10 3
Торрент: Зарегистрирован [2018-09-29 18:55] · скачан: 40 раз
Статус: √ проверено
Размер: 13.66 GB
Как cкачать? Как скачать Полиция Чикаго через торрент | qTorrent



Последний раз редактировалось: killermax2013 (2018-09-29 19:06), всего редактировалось 7 раз(а)

28-11-2019 20:33  

Отключить всю рекламу на сайте

27-09-2016 15:19 Полиция Чикаго Скачать торрент  

pb.wtf



05-10-2016 20:46 Полиция Чикаго Скачать торрент  

.......pb.wtf





Последний раз редактировалось: killermax2013 (2018-09-29 18:57), всего редактировалось 1 раз

18-10-2016 08:37 Полиция Чикаго Скачать торрент  

....pb.wtf



    Дорогой пользователь! Огромная просьба, поблагодарите релизера, оцените раздачу и оставьте свои комментарий, если Вы скачали Полиция Чикаго через торрент бесплатно! Внесите свою лепту в развитие PiratBit!
    Комментировать посты могут только пользователи прошедшие не сложную регистрацию
    Показать сообщения:    

    Полиция Чикаго через торрент
    Скачать бесплатно Полиция Чикаго
    Полиция Чикаго скачать торрент
    Полиция Чикаго смотреть онлайн
    Cкачать фильм Полиция Чикаго бесплатно
    Полиция Чикаго скачать торрент в хорошем качестве
    Полиция Чикаго смотреть онлайн бесплатно в хорошем качестве


    Вы не можете начинать темы
    Вы не можете отвечать на сообщения
    Вы не можете редактировать свои сообщения
    Вы не можете удалять свои сообщения
    Вы не можете голосовать в опросах
    Вы не можете прикреплять файлы к сообщениям
    Вы можете скачивать файлы