новый адрес
Мега распродажа FORZA HORIZON 4 ULTIMATE+ВСЕ DLC+ОНЛАЙН всего за 499р. 349 руб. (супер цена). Внимание количество ограничено!!!

iTunes

1+1

iTunes

мы

iTunes

1

iTunes

Чернобыль

iTunes

Ральф против интернета

Лицензия

ПШазам

Лицензия

Игра престолов

Лицензия

30
pack

ВАЖНО

!!Акция!!

Alien_RageХит недели

RePack

Resident Evil 21

ИГРА 18+

pack

RePack

Metro:Exodus

!!Акция!!

Alien_Rage

RePack

fifa19

RePack

Assassins Creed: Odyssey

RePack

NEED FOR SPEED™ PAYBACK

3 сезон

9 сезон

Бесстыжие 9 сезон

Все сериалы

все сериалы на PB.wtf

RePack

FAR CRY 5
Ребята, катастрофически не хватает 1900р. для оплаты серверов за Октябрь (всвязи с блокировками трафик упал в 3 раза), 1-2р., выручайте.
  

На границе / Na granicy (Войцех Касперский) [2016 г., боевик, триллер, драма, WEB-DLRip] Любительский (одноголосый) pb.wtf

На границе через торрент pb.wtf

Размер: 1.44 GB | Добавлен: 3 года 1 мес. назад | Торрент скачан:116 раз
Скачать  

27-09-2016 15:17 На границе Скачать торрент  

На границе / Na granicy Год выпуска: 2016
Страна: Польша
Жанр: боевик, триллер, драма
Продолжительность: 01:36:13
Перевод: Любительский (одноголосый) Xихикающий Доктор
Субтитры: Английские (внешние)

Режиссер: Войцех Касперский

Бюджет: PLN 3 450 000
Премьера в мире: 19 февраля 2016

rating

В ролях: Бартош Беленя, Януш Хабёр, Анджей Хыра, Марчин Дорочиньский, Анджей Грабовски, Куба Хенриксен, Северина Спаковска

Описание: Вдохновленная реальными событиями история отца и его двух сыновьей, которые приезжают в горы Бещады, чтобы заново построить между собой отношения после недавно случившейся семейной трагедии. Таинственный незнакомец, появляющийся в отрезанной от цивилизации горной турбазе, втягивает героев в мрачный и опасный преступный мир пограничной полосы. Чтобы выжить, братьям придется выполнить сложную задачу урока взрослой жизни.

  
Качество: WEB-DLRip
Формат: AVI
Видео кодек: XviD
Аудио кодек: AC3
Видео: XviD, 1937 kb/s, 720x304,48.000 fps,8 bits
Аудио#1: AC3, 2 ch, 192 kb/s,44.1 KHz
скриншот  скриншот  скриншот  

Код:

General
Complete name               : E:\Na granicy (2016) WEB-DLDRip.avi
Format                      : AVI
Format/Info                 : Audio Video Interleave
Format profile              : OpenDML
File size                   : 1.44 GiB
Duration                    : 1h 36mn
Overall bit rate            : 2 146 Kbps
Movie name                  : Rip by basma4i
Writing application         : Lavf57.41.100

Video
ID                          : 0
Format                      : MPEG-4 Visual
Format profile              : Simple@L5
Format settings, BVOP       : No
Format settings, QPel       : No
Format settings, GMC        : No warppoints
Format settings, Matrix     : Default (H.263)
Codec ID                    : XVID
Codec ID/Hint               : XviD
Duration                    : 1h 36mn
Bit rate                    : 1 937 Kbps
Width                       : 720 pixels
Height                      : 304 pixels
Display aspect ratio        : 2.40:1
Frame rate                  : 48.000 fps
Color space                 : YUV
Chroma subsampling          : 4:2:0
Bit depth                   : 8 bits
Scan type                   : Progressive
Compression mode            : Lossy
Bits/(Pixel*Frame)          : 0.184
Stream size                 : 1.30 GiB (90%)
Writing library             : XviD 67

Audio
ID                          : 1
Format                      : AC-3
Format/Info                 : Audio Coding 3
Mode extension              : CM (complete main)
Format settings, Endianness : Big
Codec ID                    : 2000
Duration                    : 1h 36mn
Bit rate mode               : Constant
Bit rate                    : 192 Kbps
Channel(s)                  : 2 channels
Channel positions           : Front: L R
Sampling rate               : 44.1 KHz
Frame rate                  : 28.711 fps (1536 spf)
Bit depth                   : 16 bits
Compression mode            : Lossy
Stream size                 : 132 MiB (9%)
Alignment                   : Aligned on interleaves
Interleave, duration        : 35 ms (1.67 video frames)



pb.wtf



Скачать На границе через торрент http://i83.fastpic.ru/big/2016/0926/cc/8def53c68162ef172a5b4f7e7ea4e2cc.jpg Скачать фильм На границе через торрент бесплантно в хорошем качестве Описание: Вдохновленная реальными событиями история отца и его двух сыновьей, которые приезжают в горы Бещады, чтобы заново построить между ... 9.3 10 7
Торрент: Зарегистрирован [2016-09-27 15:17] · скачан: 116 раз
Статус: T временная
Размер: 1.44 GB
Как cкачать? Как скачать На границе через торрент | qTorrent


>> Регистрируемся здесь <<






Отзывы и комментарии о схеме читаем и пишем здесь: ---> Отзывы и комментарии о схеме

Новые благодарочки в телеграм довольных пользователей:
скриншот   скриншот   скриншот   скриншот   скриншот

28-09-2016 16:09 На границе Скачать торрент  

Режиссёр случайно не "Касперский")))pb.wtf



    Дорогой пользователь! Огромная просьба, поблагодарите релизера, оцените раздачу и оставьте свои комментарий, если Вы скачали На границе через торрент бесплатно! Внесите свою лепту в развитие PiratBit!
    Комментировать посты могут только пользователи прошедшие не сложную регистрацию
    Показать сообщения:    

    На границе через торрент
    Скачать бесплатно На границе
    На границе скачать торрент
    На границе смотреть онлайн
    Cкачать фильм На границе бесплатно
    На границе скачать торрент в хорошем качестве
    На границе смотреть онлайн бесплатно в хорошем качестве


    Вы не можете начинать темы
    Вы не можете отвечать на сообщения
    Вы не можете редактировать свои сообщения
    Вы не можете удалять свои сообщения
    Вы не можете голосовать в опросах
    Вы не можете прикреплять файлы к сообщениям
    Вы можете скачивать файлы