2 сезон

iTunes

1 сезон

1

iTunes

iTunes

iTunes

1 сезон

RePack

30

ИГРА 18+

pack

ВАЖНО

!!Акция!!

Alien_RageХит недели

RePack

MK11
pack

Забери бонус

RePack

jed

!!Акция!!

Alien_Rage

RePack

fifa19

RePack

Assassins Creed: Odyssey

RePack

NEED FOR SPEED™ PAYBACK

4 сезон

9 сезон

Бесстыжие 9 сезон

Все сериалы

все сериалы на PB.wtf

RePack

FAR CRY 5
  

Тарзан. Легенда / The Legend of Tarzan (Дэвид Йэтс / David Yates) [2016, Боевик, Драма, Приключения, BDRip 1080p] Дубляж [iTunes] pb.wtf

Тарзан. Легенда через торрент pb.wtf

Размер: 7.46 GB | Добавлен: 4 года 1 мес. назад | Торрент скачан:853 раза
Скачать  

27-09-2016 19:04 Тарзан. Легенда Скачать торрент  



Год выпуска: 2016
Страна: США, Великобритания, Канада
Жанр: боевик, драма, мелодрама, приключения
Продолжительность: 01:49:58
Перевод: дублированный - iTunes
В ролях: Александр Скарсгард, Марго Робби, Кристоф Вальц, Сэмюэл Л. Джексон, Джимон Хонсу, Джим Бродбент, Рори Дж. Сапер, Марго Робби, Ози Икхайл, Менс-Сана Тамакло, Энтони Ачеампонг
Режиссёр: Дэвид Йэтс / David Yates
Рейтинг:
rating
Описание:
Приспособившийся к жизни в Лондоне Тарзан возвращается в свой бывший дом, в джунгли, чтобы разобраться в том, что происходит в лагере горнодобывающей компании.
Качество: BDRip 1080p
Формат: MKV | x264 |
Видео: X264/MPEG4-AVC | 1920x800 (2.40:1) | ~8730 kbps | 23.976 fps
Аудио Rus: AC3 | 48 KHz | 5.1 (Front: L С R Side: L R) + LFE | ~384 kbps
Аудио Eng: AC3 | 48 KHz | 5.1 (Front: L С R Side: L R) + LFE | ~640 kbps
Субтитры: | Русские (Forced, Full) | английские (Full) |

скриншот  скриншот  скриншот  скриншот  скриншот  скриншот  скриншот  

Код:

x264 [info]: frame I:1056 Avg QP: 14.66 size: 191145
x264 [info]: frame P:42689 Avg QP: 17.31 size: 76036
x264 [info]: frame B:114468 Avg QP: 18.28 size: 32476

Общее
Уникальный идентификатор                 : 220736065029928877448861001602511380594 (0xA610384130E1851CA5F328EE0DDBA072)
Полное имя                               : E:\Torrent\film\The Legend of Tarzan (2016).BDRip_1080p.mkv
Формат                                   : Matroska
Версия формата                           : Version 2
Размер файла                             : 7,46 Гбайт
Продолжительность                        : 1 ч. 49 м.
Общий поток                              : 9713 Кбит/сек
Название фильма                          : The.Legend.of.Tarzan.(2016).BDRip.1080p
Дата кодирования                         : UTC 2016-09-27 08:25:44
Программа кодирования                    : mkvmerge v7.9.0 ('Birds') 64bit
Библиотека кодирования                   : libebml v1.3.1 + libmatroska v1.4.2

Видео
Идентификатор                            : 1
Формат                                   : AVC
Формат/Информация                        : Advanced Video Codec
Профиль формата                          : High@L4.1
Параметр CABAC формата                   : Да
Параметр ReFrames формата                : 5 кадров
Идентификатор кодека                     : V_MPEG4/ISO/AVC
Продолжительность                        : 1 ч. 49 м.
Битрейт                                  : 8730 Кбит/сек
Ширина                                   : 1920 пикселей
Высота                                   : 800 пикселей
Соотношение сторон                       : 2,40:1
Режим частоты кадров                     : Постоянный
Частота кадров                           : 23,976 (24000/1001) кадра/сек
Цветовое пространство                    : YUV
Субдискретизация насыщенности            : 4:2:0
Битовая глубина                          : 8 бит
Тип развёртки                            : Прогрессивная
Бит/(Пиксели*Кадры)                      : 0.237
Размер потока                            : 6,53 Гбайт (87%)
Заголовок                                : The.Legend.of.Tarzan.(2016)
Библиотека кодирования                   : x264 core 148 r2705 3f5ed56
Настройки программы                      : cabac=1 / ref=5 / deblock=1:-3:-3 / analyse=0x3:0x133 / me=umh / subme=11 / psy=1 / psy_rd=1.00:0.00 / mixed_ref=1 / me_range=32 / chroma_me=1 / trellis=2 / 8x8dct=1 / cqm=0 / deadzone=21,11 / fast_pskip=0 / chroma_qp_offset=-2 / threads=12 / lookahead_threads=2 / sliced_threads=0 / nr=0 / decimate=0 / interlaced=0 / bluray_compat=0 / constrained_intra=0 / bframes=9 / b_pyramid=2 / b_adapt=2 / b_bias=0 / direct=3 / weightb=1 / open_gop=0 / weightp=2 / keyint=240 / keyint_min=23 / scenecut=40 / intra_refresh=0 / rc=2pass / mbtree=0 / bitrate=8730 / ratetol=1.0 / qcomp=0.60 / qpmin=0 / qpmax=69 / qpstep=4 / cplxblur=20.0 / qblur=0.5 / ip_ratio=1.40 / pb_ratio=1.30 / aq=1:1.00
Язык                                     : English
Default                                  : Да
Forced                                   : Нет

Аудио #1
Идентификатор                            : 2
Формат                                   : AC-3
Формат/Информация                        : Audio Coding 3
Расширение режима                        : CM (complete main)
Параметр Endianness формата              : Big
Идентификатор кодека                     : A_AC3
Продолжительность                        : 1 ч. 49 м.
Вид битрейта                             : Постоянный
Битрейт                                  : 384 Кбит/сек
Каналы                                   : 6 каналов
Расположение каналов                     : Front: L C R, Side: L R, LFE
Частота                                  : 48,0 КГц
Частота кадров                           : 31,250 кадров/сек (1536 spf)
Метод сжатия                             : С потерями
Размер потока                            : 302 Мбайт (4%)
Заголовок                                : DUB | DD5.1 @ 384 kbps
Язык                                     : Russian
Default                                  : Да
Forced                                   : Нет

Аудио #2
Идентификатор                            : 3
Формат                                   : AC-3
Формат/Информация                        : Audio Coding 3
Расширение режима                        : CM (complete main)
Параметр Endianness формата              : Big
Идентификатор кодека                     : A_AC3
Продолжительность                        : 1 ч. 49 м.
Вид битрейта                             : Постоянный
Битрейт                                  : 640 Кбит/сек
Каналы                                   : 6 каналов
Расположение каналов                     : Front: L C R, Side: L R, LFE
Частота                                  : 48,0 КГц
Частота кадров                           : 31,250 кадров/сек (1536 spf)
Метод сжатия                             : С потерями
Размер потока                            : 503 Мбайт (7%)
Заголовок                                : Original | DD5.1 @ 640 kbps
Язык                                     : English
Default                                  : Нет
Forced                                   : Нет

Текст #1
Идентификатор                            : 4
Формат                                   : UTF-8
Идентификатор кодека                     : S_TEXT/UTF8
Идентификатор кодека/Информация          : UTF-8 Plain Text
Заголовок                                : Forced
Язык                                     : Russian
Default                                  : Да
Forced                                   : Нет

Текст #2
Идентификатор                            : 5
Формат                                   : UTF-8
Идентификатор кодека                     : S_TEXT/UTF8
Идентификатор кодека/Информация          : UTF-8 Plain Text
Заголовок                                : Full
Язык                                     : Russian
Default                                  : Нет
Forced                                   : Нет

Текст #3
Идентификатор                            : 6
Формат                                   : UTF-8
Идентификатор кодека                     : S_TEXT/UTF8
Идентификатор кодека/Информация          : UTF-8 Plain Text
Заголовок                                : Full
Язык                                     : English
Default                                  : Нет
Forced                                   : Нет

Меню
00:00:00.000                             : en:00:00:00.000
00:10:56.239                             : en:00:10:56.239
00:20:47.204                             : en:00:20:47.204
00:28:26.288                             : en:00:28:26.288
00:40:49.197                             : en:00:40:49.197
00:51:03.310                             : en:00:51:03.310
01:01:15.297                             : en:01:01:15.297
01:10:22.635                             : en:01:10:22.635
01:20:58.145                             : en:01:20:58.145
01:29:09.344                             : en:01:29:09.344
01:42:06.495                             : en:01:42:06.495

pb.wtf



Скачать Тарзан. Легенда через торрент http://s020.radikal.ru/i722/1609/d6/dcf5d736be17.png Скачать фильм Тарзан. Легенда через торрент бесплантно в хорошем качестве Описание:Приспособившийся к жизни в Лондоне Тарзан возвращается в свой бывший дом, в джунгли, чтобы разобраться в том, что происходит в ... 10 10 22
Info! Золотая раздача, скачанное не засчитывается.
Торрент: Зарегистрирован [2016-09-27 19:04] · скачан: 853 раз
Статус: √ проверено
Размер: 7.46 GB
Как cкачать? Как скачать Тарзан. Легенда через торрент | qTorrent

% Раздел Тема Автор DL S | L
Ultra HD (UHD: 2K, 4K, 8K) — видео сверхвысокой чёткости [ 52.3 GB ] Тарзан. Легенда / The Legend of Tarzan [2016 UHD Blu-ray 2160p] - [] sheker187 Скачать
1 | 0
Ultra HD (UHD: 2K, 4K, 8K) — видео сверхвысокой чёткости [ 17.65 GB ] Тарзан. Легенда / The Legend of Tarzan [2016 UHD BDRip 2160p] - [] sheker187 Скачать
1 | 0
Фильмы [HD 720p, 1080p] (Хороший звук DUB, MVO) [ 5.76 GB ] Грейстоук. Легенда о Тарзане повелителе обезьян / Greystoke: The Legend of Tarzan Lord of the Apes [1984 BDRip 720p by msltel] DUB MVO 2 x AVO msltel Скачать
1 | 0
Фильмы [HD 720p, 1080p] (Хороший звук DUB, MVO) [ 15.08 GB ] Грейстоук. Легенда о Тарзане повелителе обезьян / Greystoke: The Legend of Tarzan Lord of the Apes [1984 BDRip 1080p by msltel] DUB MVO 2 x AVO msltel Скачать
1 | 0
Фильмы [HD 720p, 1080p] (Хороший звук DUB, MVO) [ 7.73 GB ] Тарзан. Легенда / The Legend of Tarzan [ BDRip 1080p] DUB + MVO potroks Скачать
1 | 0
Ultra HD (UHD: 2K, 4K, 8K) — видео сверхвысокой чёткости [ 43.48 GB ] Тарзан. Легенда / The Legend of Tarzan [2016 UHD BDRemux 2160p] DUB [] bober100 Скачать
1 | 0
Фильмы [HD 720p, 1080p] (Хороший звук DUB, MVO) [ 4.37 GB ] Тарзан. Легенда / The Legend of Tarzan [2016 BDRip 720p] DUB [] bober100 Скачать
1 | 0

28-11-2019 20:33  

Отключить всю рекламу на сайте

28-09-2016 12:51 Тарзан. Легенда Скачать торрент  

Никогда не понимал как Тарзан брился? И главное зачем?pb.wtf



29-09-2016 08:55 Тарзан. Легенда Скачать торрент  

билять какая хрень убогая !pb.wtf



18-10-2016 01:37 Тарзан. Легенда Скачать торрент  

наконец руки дошли щас глянемpb.wtf



20-10-2016 18:00 Тарзан. Легенда Скачать торрент  

и я не доволенpb.wtf



    Дорогой пользователь! Огромная просьба, поблагодарите релизера, оцените раздачу и оставьте свои комментарий, если Вы скачали Тарзан. Легенда через торрент бесплатно! Внесите свою лепту в развитие PiratBit!
    Комментировать посты могут только пользователи прошедшие не сложную регистрацию
    Показать сообщения:    

    Тарзан. Легенда через торрент
    Скачать бесплатно Тарзан. Легенда
    Тарзан. Легенда скачать торрент
    Тарзан. Легенда смотреть онлайн
    Cкачать фильм Тарзан. Легенда бесплатно
    Тарзан. Легенда скачать торрент в хорошем качестве
    Тарзан. Легенда смотреть онлайн бесплатно в хорошем качестве


    Вы не можете начинать темы
    Вы не можете отвечать на сообщения
    Вы не можете редактировать свои сообщения
    Вы не можете удалять свои сообщения
    Вы не можете голосовать в опросах
    Вы не можете прикреплять файлы к сообщениям
    Вы можете скачивать файлы