>

5.6

iTunes

6.1

MVO

5.7

MVO

1

7.4

1 сезон

6.8

iTunes

7.2

1 сезон

13

6.7

1 сезон

8.3

RePack

30

Deluxe

pack

9.9

Лицензия

ВАЖНО

ИГРА 18+

pack

7.3

RePack

MK11

7.7

RePack

jed

7.8

RePack

fifa19

8.5

RePack

RDR2

RePack

NEED FOR SPEED™ PAYBACK

4 сезон

9 сезон

Бесстыжие 9 сезон

Все сериалы

все сериалы на PB.wtf

RePack

FAR CRY 5

Anonymous, доброй ночи, мы катастрофически не успеваем собрать деньги на оплату серверов, помогите нам пожалуйста 5,10,15р., для нас важна любая помощь . В качестве благодарности мы отключим Вам всю рекламу на сайте (укажите свой ник в строку Ваше имя)!

×
  
Magnet ссылка

Робинзон Крузо на Марсе / Robinson Crusoe on Mars (Байрон Хэскин) [1964 г., фантастика, приключения, BDRip] MVO pb.wtf

Робинзон Крузо на Марсе через торрент pb.wtf

Размер: 2.18 GB | Добавлен: 4 года 11 мес. назад | Торрент скачан:15 раз
Смотреть онлайн Робинзон Крузо на Марсе | Скачать    Ребята, помогите собрать деньги на оплату серверов!!!

28-09-2016 06:26 Робинзон Крузо на Марсе Скачать торрент  

Робинзон Крузо на Марсе / Robinson Crusoe on Mars
Год выпуска: 1964
Страна: США
Жанр: фантастика, приключения
Продолжительность: 01:49:55
Перевод: Профессиональный (многоголосый) [Paramound Channel]

Режиссер: Байрон Хэскин

Бюджет: $1 200 000
Премьера в мире: 24 сентября 1964

rating

В ролях: Пол Манти, Виктор Лундин, Адам Уэст, Вули Манки

Описание: Командир Дрэйпер и полковник МакРэди находятся на орбитальном облете планеты Марс. Вследствии поломки корабля, они и обезьянка Мона были вынуждены катапультироваться на поверхность Красной планеты. Дрейперу придется вести неравную борьбу за выживание с враждебным ему миром, полагаясь только на свои силы.

Качество: BDRip
Формат: AVI
Видео кодек: XviD
Аудио кодек: AC3
Видео: XviD, 2186 Кбит/с, 720x304, 23.976 кадр/с
Аудио#1: АС3, 2 ch, 192 Кбит/с, 48 kHz | Русский
Аудио#2: АС3, 1 ch, 448 Кбит/с, 48 kHz | Aнглийский
Релиз от: Koenig
Общее
Полное имя : Robinson.Crusoe.on.Mars.1964.BDRip.avi
Формат : AVI
Формат/Информация : Audio Video Interleave
Профиль формата : OpenDML
Размер файла : 2,18 Гбайт
Продолжительность : 1 ч. 49 м.
Общий поток : 2844 Кбит/сек
Программа кодирования : VirtualDubMod 1.5.10.2 (build 2540/release)
Библиотека кодирования : VirtualDubMod build 2540/release

Видео
Идентификатор : 0
Формат : MPEG-4 Visual
Профиль формата : Advanced Simple@L5
Параметр BVOP формата : 1
Параметр QPel формата : Нет
Параметр GMC формата : Без точки перехода
Параметр матрицы формата : Выборочная
Идентификатор кодека : XVID
Идентификатор кодека/Подсказка : XviD
Продолжительность : 1 ч. 49 м.
Битрейт : 2186 Кбит/сек
Ширина : 720 пикселей
Высота : 304 пикселя
Соотношение сторон : 2,35:1
Частота кадров : 23,976 (23976/1000) кадра/сек
Цветовое пространство : YUV
Субдискретизация насыщенности : 4:2:0
Битовая глубина : 8 бит
Тип развёртки : Прогрессивная
Метод сжатия : С потерями
Бит/(Пиксели*Кадры) : 0.416
Размер потока : 1,68 Гбайт (77%)
Библиотека кодирования : XviD 73

Аудио #1
Идентификатор : 1
Формат : AC-3
Формат/Информация : Audio Coding 3
Расширение режима : CM (complete main)
Параметр Endianness формата : Big
Идентификатор кодека : 2000
Продолжительность : 1 ч. 49 м.
Вид битрейта : Постоянный
Битрейт : 192 Кбит/сек
Каналы : 2 канала
Расположение каналов : Front: L R
Частота : 48,0 КГц
Частота кадров : 31,250 кадров/сек (1536 spf)
Метод сжатия : С потерями
Размер потока : 151 Мбайт (7%)
Выравнивание : Разделение по промежуткам
Продолжительность промежутка : 42 мс. (1,00 видеокадр)
Время предзагрузки промежутка : 500 мс.

Аудио #2
Идентификатор : 2
Формат : AC-3
Формат/Информация : Audio Coding 3
Расширение режима : CM (complete main)
Параметр Endianness формата : Big
Идентификатор кодека : 2000
Продолжительность : 1 ч. 49 м.
Вид битрейта : Постоянный
Битрейт : 448 Кбит/сек
Каналы : 1 канал
Расположение каналов : Front: C
Частота : 48,0 КГц
Частота кадров : 31,250 кадров/сек (1536 spf)
Метод сжатия : С потерями
Размер потока : 352 Мбайт (16%)
Выравнивание : Разделение по промежуткам
Продолжительность промежутка : 42 мс. (1,00 видеокадр)
Время предзагрузки промежутка : 500 мс.

pb.wtf



Скачать Робинзон Крузо на Марсе через торрент https://pic1.kartinco.top/images/10/9e2o7.jpg Скачать, смотреть онлайн Робинзон Крузо на Марсе бесплантно в хорошем качестве Описание: Командир Дрэйпер и полковник МакРэди находятся на орбитальном облете планеты Марс. Вследствии поломки корабля, они и обезьянка ... 10 10 2
Info! Золотая раздача, скачанное не засчитывается.
Торрент: Зарегистрирован [2016-09-28 06:26] · скачан: 15 раз
Статус: √ проверено
Размер: 2.18 GB
Как cкачать? Как скачать Робинзон Крузо на Марсе через торрент | UTorrent

28-11-2019 20:33  

Отключить всю рекламу на сайте

    Дорогой пользователь! Огромная просьба, поблагодарите релизера, оцените раздачу и оставьте свои комментарий, если Вы скачали Робинзон Крузо на Марсе через торрент бесплатно!
    Комментировать посты могут только пользователи прошедшие не сложную регистрацию
    Показать сообщения:    

    Робинзон Крузо на Марсе через торрент
    Скачать бесплатно Робинзон Крузо на Марсе
    Робинзон Крузо на Марсе скачать торрент
    Робинзон Крузо на Марсе смотреть онлайн
    Cкачать фильм Робинзон Крузо на Марсе бесплатно
    Робинзон Крузо на Марсе скачать торрент в хорошем качестве
    Робинзон Крузо на Марсе смотреть онлайн бесплатно в хорошем качестве


    Вы не можете начинать темы
    Вы не можете отвечать на сообщения
    Вы не можете редактировать свои сообщения
    Вы не можете удалять свои сообщения
    Вы не можете голосовать в опросах
    Вы не можете прикреплять файлы к сообщениям
    Вы можете скачивать файлы