Ссылка на приватное зеркало нашего сайта всего за 1$. Внимание количество ограничено!!!

2 сезон

iTunes

1 сезон

1

2 сезон

2 сезон

iTunes

1 сезон

RePack

30

Ultimate

ВАЖНО

ИГРА 18+

pack

RePack

MK11
pack

Забери бонус

RePack

jed

!!Акция!!

Alien_Rage

RePack

fifa19

RePack

Assassins Creed: Odyssey

RePack

NEED FOR SPEED™ PAYBACK

4 сезон

9 сезон

Бесстыжие 9 сезон

Все сериалы

все сериалы на PB.wtf

RePack

FAR CRY 5
  

Алиса в Зазеркалье / Alice Through the Looking Glass (Джеймс Бобин) [2016, Фэнтези, приключения, семейный, эранизация BDRemux 1080p] от ExKinoRay / iTunes pb.wtf

Алиса в Зазеркалье через торрент pb.wtf

Размер: 27.86 GB | Добавлен: 4 года 1 мес. назад | Торрент скачан:207 раз
Скачать  

28-09-2016 14:00 Алиса в Зазеркалье Скачать торрент  

Информация о фильме
Название: Алиса в Зазеркалье
Оригинальное название: Alice Through the Looking Glass
Год выхода: 2016
Жанр: Фэнтези, приключения, семейный, эранизация
Страна: США, Великобритания,
Студия: Legend3D, Roth Films, Team Todd, Tim Burton Productions, Walt Disney Pictures
Продолжительность: 01:52:57
Перевод: Дублированный | iTunes
Субтитры: Русские (full, forced), английские

Режиссер: Джеймс Бобин

В ролях: Миа Васиковска, Джонни Депп, Хелена Бонем Картер, Энн Хэтэуэй, Саша Барон Коэн, Рис Иванс, Мэтт Лукас, Линдси Дункан, Лео Билл, Джеральдин Джеймс

О фильме:

Победив огнедышащего дракона Бармаглота и свергнув с трона Красную Королеву, Алиса возвращается в свой родной мир. Три года она плавает по китайским морям в звании капитана корабля "Чудо", перевозя торговые грузы и занимаясь делами компании своего покойного отца, Чарльза Кингсли. Но вскоре ей предстоит вновь с головой окунуться в водоворот захватывающих приключений и ярких красок дневного свечения, опередив само время, чтобы спасти своего лучшего друга, Сумасшедшего Шляпника.



Файл

Качество: BDRemux 1080p
Формат: MKV
Видео: MPEG-4, 1920x1080, 30.0 Mbit/s, 23.976 fps
Аудио #01: 48 kHz, AC3, 5.1, 384 Kbps | Дублированный | iTunes |
Аудио #03: 48 kHz, DTS-HD MA, 7.1, 4965 kbps | Оригинал |
General

Unique ID : 173538310732677610150449175472052017574 (0x828E434E5259EC2596957286785299A6)

Complete name : H:VideoAlice.Through.the.Looking.Glass.2016.BDREMUX.1080p.ExKinoRay.mkv

Format : Matroska

Format version : Version 4 / Version 2

File size : 27.9 GiB

Duration : 1 h 52 min

Overall bit rate mode : Variable

Overall bit rate : 35.3 Mb/s

Encoded date : UTC 2016-09-28 11:49:35

Writing application : mkvmerge v8.3.0 ('Over the Horizon') 64bit

Writing library : libebml v1.3.1 + libmatroska v1.4.2

Video

ID : 1

Format : AVC

Format/Info : Advanced Video Codec

Format profile : High@L4.1

Format settings, CABAC : Yes

Format settings, ReFrames : 4 frames

Codec ID : V_MPEG4/ISO/AVC

Duration : 1 h 52 min

Bit rate mode : Variable

Bit rate : 30.0 Mb/s

Maximum bit rate : 34.0 Mb/s

Width : 1 920 pixels

Height : 1 080 pixels

Display aspect ratio : 16:9

Frame rate mode : Constant

Frame rate : 23.976 (24000/1001) FPS

Color space : YUV

Chroma subsampling : 4:2:0

Bit depth : 8 bits

Scan type : Progressive

Bits/(Pixel*Frame) : 0.602

Stream size : 23.6 GiB (85%)

Language : English

Default : Yes

Forced : No

Audio #1

ID : 2

Format : AC-3

Format/Info : Audio Coding 3

Mode extension : CM (complete main)

Format settings, Endianness : Big

Codec ID : A_AC3

Duration : 1 h 52 min

Bit rate mode : Constant

Bit rate : 384 kb/s

Channel(s) : 6 channels

Channel positions : Front: L C R, Side: L R, LFE

Sampling rate : 48.0 kHz

Frame rate : 31.250 FPS (1536 spf)

Compression mode : Lossy

Stream size : 310 MiB (1%)

Title : Dub [iTunes]

Language : Russian

Default : Yes

Forced : No

Audio #2

ID : 3

Format : DTS

Format/Info : Digital Theater Systems

Format profile : MA / Core

Mode : 16

Format settings, Endianness : Big

Codec ID : A_DTS

Duration : 1 h 52 min

Bit rate mode : Variable / Constant

Bit rate : 4 965 kb/s / 1 509 kb/s

Channel(s) : 8 channels / 6 channels

Channel positions : Front: L C R, Side: L R, Back: L R, LFE / Front: L C R, Side: L R, LFE

Sampling rate : 48.0 kHz

Frame rate : 93.750 FPS (512 spf)

Bit depth : 24 bits

Compression mode : Lossless / Lossy

Stream size : 3.92 GiB (14%)

Title : Original

Language : English

Default : No

Forced : No

Text #1

ID : 4

Format : UTF-8

Codec ID : S_TEXT/UTF8

Codec ID/Info : UTF-8 Plain Text

Duration : 1 h 43 min

Bit rate : 0 b/s

Count of elements : 6

Stream size : 187 Bytes (0%)

Title : Forced

Language : Russian

Default : Yes

Forced : No

Text #2

ID : 5

Format : UTF-8

Codec ID : S_TEXT/UTF8

Codec ID/Info : UTF-8 Plain Text

Duration : 1 h 51 min

Bit rate : 68 b/s

Count of elements : 1391

Stream size : 55.9 KiB (0%)

Title : Full

Language : Russian

Default : No

Forced : No

Text #3

ID : 6

Format : UTF-8

Codec ID : S_TEXT/UTF8

Codec ID/Info : UTF-8 Plain Text

Duration : 1 h 52 min

Bit rate : 50 b/s

Count of elements : 1797

Stream size : 41.3 KiB (0%)

Title : Full

Language : English

Default : No

Forced : No

Menu

00:00:00.000 : en:00:00:00.000

00:04:33.190 : en:00:04:33.190

00:07:24.235 : en:00:07:24.235

00:12:07.435 : en:00:12:07.435

00:16:39.790 : en:00:16:39.790

00:22:47.616 : en:00:22:47.616

00:24:59.623 : en:00:24:59.623

00:30:18.233 : en:00:30:18.233

00:35:29.794 : en:00:35:29.794

00:41:32.990 : en:00:41:32.990

00:45:20.051 : en:00:45:20.051

00:51:35.676 : en:00:51:35.676

00:54:11.039 : en:00:54:11.039

00:57:40.123 : en:00:57:40.123

01:04:18.521 : en:01:04:18.521

01:09:18.988 : en:01:09:18.988

01:12:46.279 : en:01:12:46.279

01:18:07.391 : en:01:18:07.391

01:23:20.245 : en:01:23:20.245

01:27:34.749 : en:01:27:34.749

01:32:15.947 : en:01:32:15.947

01:36:40.461 : en:01:36:40.461

01:40:12.590 : en:01:40:12.590

01:43:14.814 : en:01:43:14.814
скриншот   скриншот   скриншот  
Релиз от: Автор релиза: pb.wtf



Скачать Алиса в Зазеркалье через торрент http://s48.radikal.ru/i119/1609/b8/a9a9f90ab9b5.jpg Скачать фильм Алиса в Зазеркалье через торрент бесплантно в хорошем качестве О фильме:Победив огнедышащего дракона Бармаглота и свергнув с трона Красную Королеву, Алиса возвращается в свой родной мир. Три года она ... 9.9 10 14
Info! Золотая раздача, скачанное не засчитывается.
Торрент: Зарегистрирован [2016-09-28 14:00] · скачан: 207 раз
Статус: √ проверено
Размер: 27.86 GB
Как cкачать? Как скачать Алиса в Зазеркалье через торрент | qTorrent

28-11-2019 20:33  

Отключить всю рекламу на сайте

05-11-2016 22:23 Алиса в Зазеркалье Скачать торрент  

Прикольно.pb.wtf



    Дорогой пользователь! Огромная просьба, поблагодарите релизера, оцените раздачу и оставьте свои комментарий, если Вы скачали Алиса в Зазеркалье через торрент бесплатно! Внесите свою лепту в развитие PiratBit!
    Комментировать посты могут только пользователи прошедшие не сложную регистрацию
    Показать сообщения:    

    Алиса в Зазеркалье через торрент
    Скачать бесплатно Алиса в Зазеркалье
    Алиса в Зазеркалье скачать торрент
    Алиса в Зазеркалье смотреть онлайн
    Cкачать фильм Алиса в Зазеркалье бесплатно
    Алиса в Зазеркалье скачать торрент в хорошем качестве
    Алиса в Зазеркалье смотреть онлайн бесплатно в хорошем качестве


    Вы не можете начинать темы
    Вы не можете отвечать на сообщения
    Вы не можете редактировать свои сообщения
    Вы не можете удалять свои сообщения
    Вы не можете голосовать в опросах
    Вы не можете прикреплять файлы к сообщениям
    Вы можете скачивать файлы