Ссылка на приватное зеркало нашего сайта всего за 1$. Внимание количество ограничено!!!

2 сезон

iTunes

1 сезон

1

2 сезон

2 сезон

iTunes

1 сезон

RePack

30

Новинка

ВАЖНО

ИГРА 18+

pack

RePack

MK11
pack

Забери бонус

RePack

jed

!!Акция!!

Alien_Rage

RePack

fifa19

RePack

Assassins Creed: Odyssey

RePack

NEED FOR SPEED™ PAYBACK

4 сезон

9 сезон

Бесстыжие 9 сезон

Все сериалы

все сериалы на PB.wtf

RePack

FAR CRY 5
  

Королевы крика / Scream Queens / Сезон: 2 / Серии 1-10 из 10 (Брэд Фалчук / Brad Falchuk, Майкл Аппендаль / Michael Uppendahl, Барбара Браун / Barbara Brown) [2016, США, ужасы, комедия, детектив, WEB-DLRip-AVC MVO [NewStudio] pb.wtf

Королевы крика через торрент pb.wtf

Размер: 8.21 GB | Добавлен: 3 года 10 мес. назад | Торрент скачан:38 раз
Скачать  

29-09-2016 01:11 Королевы крика Скачать торрент  

Королевы крика / Scream Queens
«Pretty evil»


  • Год выпуска: 2016
  • Страна: США
  • Жанр: ужасы, комедия, детектив
  • Продолжительность: 00:42:09 (Серия)
  • Перевод: Профессиональный многоголосый
  • Режиссер: Брэд Фалчук / Brad Falchuk, Майкл Аппендаль / Michael Uppendahl, Барбара Браун / Barbara Brown
  • В ролях:

    Эмма Робертс (Chanel Oberlin), Лиа Мишель (Hester Ulrich), Эбигейл Бреслин (Chanel #5), Кеке Палмер (Zayday Williams), Билли Лурд (Chanel #3), Джейми Ли Кёртис (Cathy Munsch), Ниси Нэш (Denise Hemphill), Глен Пауэлл (Chad Radwell), Скайлер Сэмюэлс (Grace Gardner), Кёрсти Элли (Ingrid Hoffel), Тэйлор Лотнер (Dr. Cassidy Cascade), Диего Бонета (Pete Martinez)


  • Сюжет сериала вновь сосредоточен вокруг девиц по имени "Шанель" в данный момент находящихся в госпитале, жизнь которого потрясает серия убийств.
  • Рейтинг:



  • Качество: WEB-DLRip-AVC
  • Формат: :MPEG-4
  • Видео кодек: AVC
  • Аудио кодек: AC3
  • Видео: 1024x576 (16:9), 1896 kbps, 23,976 fps, 0,134 bpp
  • Аудио №1: русский / 5.1 / 48 kHz / 384 kbps / 16 bit |[NewStudio]|
  • Аудио №2: английский / 5.1 / 48 kHz / 384 kbps / 16 bit
  • Релиз от: GEKADOL

    Внимание! Раздача ведётся путём добавления новых серий; при каждом добавлении создаётся новый торрент. Чтобы начать докачку новой серии, пользователям необходимо сделать следующее:
    (1) остановить скачивание,
    (2) удалить старый торрент у себя из клиента (старые серии удалять не надо),
    (3) скачать новый торрент и запустить его у себя в клиенте вместо старого, при этом указать клиенту путь в старую папку куда и должно происходить скачивание новых серий.
    Ваш клиент при этом должен произвести хеширование (проверку) старой папки (если не производит сам - помогите ему сделать это), и будет докачивать только те серии которых у вас ещё нет. Старые серии при этом не удаляются, а продолжают раздаваться!
    Eсли вы уже удалили старые серии, то предотвратить повторную закачку старых серий можно, отжав галочку в соответствующих местах при запуске нового торрента. По возможности, желательно не удалять старые серии как можно дольше чтобы релизёр не столько продолжал раздавать старые серии, а смог сконцентрироваться на новых.

    General
    Complete name : H:\Королевы крика (Scream Queens2)\Scream.Queens.s02e01.WEB-DLRip-AVC.NewStudio.TV.mp4
    Format : MPEG-4
    Format profile : Base Media
    Codec ID : isom (isom/iso2/avc1/mp41)
    File size : 805 MiB
    Duration : 42 min
    Overall bit rate : 2 669 kb/s
    Writing application : XviD4PSP 7.0.299 DAILY
    HDVideo : Yes
    encoding_info : MATROSKA / WEBM > MP4 Произвольный / H264 > X264 CBR 2000kbps HQ / AC3 > AC3 CBR 384kbps / AC3 > AC3 CBR 384kbps

    Video
    ID : 1
    Format : AVC
    Format/Info : Advanced Video Codec
    Format profile : High@L3.1
    Format settings, CABAC : Yes
    Format settings, ReFrames : 4 frames
    Codec ID : avc1
    Codec ID/Info : Advanced Video Coding
    Duration : 42 min
    Bit rate : 1 896 kb/s
    Nominal bit rate : 2 000 kb/s
    Width : 1 024 pixels
    Height : 576 pixels
    Display aspect ratio : 16:9
    Frame rate mode : Constant
    Frame rate : 23.976 (24000/1001) FPS
    Color space : YUV
    Chroma subsampling : 4:2:0
    Bit depth : 8 bits
    Scan type : Progressive
    Bits/(Pixel*Frame) : 0.134
    Stream size : 572 MiB (71%)
    Writing library : x264 core 148 r2705M 3f5ed56
    Encoding settings : cabac=1 / ref=3 / deblock=1:-1:-1 / analyse=0x3:0x133 / me=hex / subme=7 / psy=1 / psy_rd=1.00:0.20 / mixed_ref=1 / me_range=16 / chroma_me=1 / trellis=1 / 8x8dct=1 / cqm=0 / deadzone=21,11 / fast_pskip=1 / chroma_qp_offset=-3 / threads=5 / lookahead_threads=1 / sliced_threads=0 / nr=0 / decimate=1 / interlaced=0 / bluray_compat=0 / constrained_intra=0 / bframes=3 / b_pyramid=2 / b_adapt=2 / b_bias=0 / direct=3 / weightb=1 / open_gop=0 / weightp=2 / keyint=230 / keyint_min=23 / scenecut=40 / intra_refresh=0 / rc_lookahead=40 / rc=cbr / mbtree=1 / bitrate=2000 / ratetol=1.0 / qcomp=0.60 / qpmin=0 / qpmax=69 / qpstep=4 / vbv_maxrate=2000 / vbv_bufsize=2000 / nal_hrd=none / filler=0 / ip_ratio=1.40 / aq=1:1.00
    Language : English
    Color range : Limited
    Color primaries : BT.709
    Transfer characteristics : BT.709
    Matrix coefficients : BT.709

    Audio #1
    ID : 2
    Format : AC-3
    Format/Info : Audio Coding 3
    Mode extension : CM (complete main)
    Format settings, Endianness : Big
    Codec ID : ac-3
    Duration : 42 min
    Bit rate mode : Constant
    Bit rate : 384 kb/s
    Channel(s) : 6 channels
    Channel positions : Front: L C R, Side: L R, LFE
    Sampling rate : 48.0 kHz
    Frame rate : 31.250 FPS (1536 spf)
    Bit depth : 16 bits
    Compression mode : Lossy
    Stream size : 116 MiB (14%)
    Title : NewStudio.TV / NewStudio.TV
    Language : Russian
    Default : Yes
    Alternate group : 1

    Audio #2
    ID : 3
    Format : AC-3
    Format/Info : Audio Coding 3
    Mode extension : CM (complete main)
    Format settings, Endianness : Big
    Codec ID : ac-3
    Duration : 42 min
    Bit rate mode : Constant
    Bit rate : 384 kb/s
    Channel(s) : 6 channels
    Channel positions : Front: L C R, Side: L R, LFE
    Sampling rate : 48.0 kHz
    Frame rate : 31.250 FPS (1536 spf)
    Bit depth : 16 bits
    Compression mode : Lossy
    Stream size : 116 MiB (14%)
    Language : English
    Default : No
    Alternate group : 1



    Скриншоты:
    скриншот   скриншот   скриншот   скриншот   скриншот   скриншот   скриншот  
    скриншот  

    Раздача ведётся путём добавления новых серий. Добавлена 10 серия (27.12.2016).Просьба перекачать торрент файл.

    pb.wtf



  • Скачать Королевы крика через торрент http://i78.fastpic.ru/big/2016/0929/db/a642b58459740bfd0356498793d61bdb.jpeg Скачать фильм Королевы крика через торрент бесплантно в хорошем качестве qw.png Сюжет сериала вновь сосредоточен вокруг девиц по имени "Шанель" в данный момент находящихся в госпитале, жизнь которого потрясает ... 8.8 10 8
    Info! Серебряная раздача, засчитывается только 50% скачанного.
    Торрент: Зарегистрирован [2016-12-27 01:37] · скачан: 38 раз
    Статус: √ проверено
    Размер: 8.21 GB
    Как cкачать? Как скачать Королевы крика через торрент | qTorrent



    Последний раз редактировалось: GEKADOL (2016-12-27 01:38), всего редактировалось 3 раз(а)

    28-11-2019 20:33  

    Отключить всю рекламу на сайте

    14-12-2016 18:59 Королевы крика Скачать торрент  

    Друзья, дайте скачать то, второй день тишина тут.... pb.wtf



      Дорогой пользователь! Огромная просьба, поблагодарите релизера, оцените раздачу и оставьте свои комментарий, если Вы скачали Королевы крика через торрент бесплатно! Внесите свою лепту в развитие PiratBit!
      Комментировать посты могут только пользователи прошедшие не сложную регистрацию
      Показать сообщения:    

      Королевы крика через торрент
      Скачать бесплатно Королевы крика
      Королевы крика скачать торрент
      Королевы крика смотреть онлайн
      Cкачать фильм Королевы крика бесплатно
      Королевы крика скачать торрент в хорошем качестве
      Королевы крика смотреть онлайн бесплатно в хорошем качестве


      Вы не можете начинать темы
      Вы не можете отвечать на сообщения
      Вы не можете редактировать свои сообщения
      Вы не можете удалять свои сообщения
      Вы не можете голосовать в опросах
      Вы не можете прикреплять файлы к сообщениям
      Вы можете скачивать файлы