Лицензия

MVO

1

1 сезон

Лицензия

Лицензия

13

MVO

1 сезон

Deluxe Edition

pack

Рекомендуем

30

Repack

ВАЖНО

ВАЖНО

Ghostwire

RePack

jed

RePack

fifa19

RePack

RDR2

RePack

NEED FOR SPEED™ PAYBACK

RePack

Кинопоиск HD

 Острые козырьки 6 сезон

6 сезон

FAR CRY 6

RePack

Лицензия

MVO

1

1 сезон

1 сезон

Лицензия

  

Найди меня, Леня! (Николай Лебедев ) [1971, детский, DVDRip]

Найди меня, Леня! через торрент pb.wtf

Размер: 1.47 GB | Добавлен: 5 лет 11 мес. назад | Торрент скачан:1 раз
Смотреть онлайн Найди меня, Леня! | Скачать   

29-09-2016 06:55 Найди меня, Леня! Скачать торрент  

Найди меня, Леня!

Год выпуска: 1971
Страна: СССР
Жанр: детский
Продолжительность: 01:22:50
Перевод: Не требуется [Русский]
Режиссер: Николай Лебедев
В ролях: Лариса Баранова (Динка), Андрей Трофимов (Леня), Нина Веселовская (Марина Арсеньева), Евгения Ветлова (Катя), Анатолий Пузырев (Костя), Виктор Чекмарев (Гордей Захарович), Александр Демьяненко (шпик), Александр Афанасьев (Митрич), Андрей Грецов (Минька), Витя Елизаров (Трошка), Ира Венчикова (Алина), Анна Алексахина (Мышка)
Описание:
Рассказ о дружбе «на века» девочки из интеллигентной семьи и рабочего паренька. Примкнув к революционным кругам, они стали участниками гражданской войны. Но пригласив Лёньку жить к себе, семья девочки должна уехать из посёлка. Динка на берегу реки кричит Лёньке вслед уплывающего парохода: «Мы уезжаем! Найди меня!..»

Качество: DVDRip
Формат: AVI
Видео: DivX 5, 688x528 (4:3), 2377 kbps, 25 fps, 0,262 bpp
Аудио: MP3 / 2.0 / 48 kHz / 160 kbps /

General
Complete name Найди_меня_Лёня_1971_DVDRip.avi
Format : AVI
Format/Info : Audio Video Interleave
File size : 1.47 GiB
Duration : 1 h 22 min
Overall bit rate : 2 547 kb/s

Video
ID : 0
Format : MPEG-4 Visual
Format profile : Advanced [email protected]
Format settings, BVOP : 1
Format settings, QPel : No
Format settings, GMC : No warppoints
Format settings, Matrix : Default (H.263)
Codec ID : DX50
Codec ID/Hint : DivX 5
Duration : 1 h 22 min
Bit rate : 2 377 kb/s
Width : 688 pixels
Height : 528 pixels
Display aspect ratio : 4:3
Frame rate : 25.000 FPS
Color space : YUV
Chroma subsampling : 4:2:0
Bit depth : 8 bits
Scan type : Progressive
Compression mode : Lossy
Bits/(Pixel*Frame) : 0.262
Stream size : 1.38 GiB (93%)
Writing library : XviD 67

Audio
ID : 1
Format : MPEG Audio
Format version : Version 1
Format profile : Layer 3
Mode : Joint stereo
Codec ID : 55
Codec ID/Hint : MP3
Duration : 1 h 22 min
Bit rate mode : Constant
Bit rate : 160 kb/s
Channel(s) : 2 channels
Sampling rate : 48.0 kHz
Compression mode : Lossy
Stream size : 94.8 MiB (6%)
Alignment : Aligned on interleaves
Interleave, duration : 40 ms (1.00 video frame)
Interleave, preload duration : 504 ms
Writing library : LAME3.99r
Encoding settings : -m j -V 4 -q 3 -lowpass 17.5 -b 160
Скриншоты:



Скачать Найди меня, Леня! через торрент http://i5-imageban-ru.translate.goog/out/2016/09/29/5ed91f7fd666de9bf956d7d6a4a2d6f1.jpg Скачать, смотреть онлайн Найди меня, Леня! бесплантно в хорошем качестве Описание: Рассказ о дружбе «на века» девочки из интеллигентной семьи и рабочего паренька. Примкнув к революционным кругам, они стали ... 10 10 1
Торрент: Зарегистрирован [2016-09-29 06:55] · скачан: 1 раз
Статус: √ проверено
Размер: 1.47 GB
Как cкачать? Как скачать Найди меня, Леня! через торрент | UTorrent

28-11-2019 20:33  

Отключить вcю реклaмy на сайте

    Дорогой пользователь! Огромная просьба, поблагодарите релизера, оцените раздачу и оставьте свои комментарий, если Вы скачали Найди меня, Леня! через торрент бесплатно!!
    Комментировать посты могут только пользователи прошедшие не сложную регистрацию
    Показать сообщения:    


    Найди меня, Леня! через торрент
    Скачать бесплатно Найди меня, Леня!
    Найди меня, Леня! скачать торрент
    Найди меня, Леня! смотреть онлайн
    Cкачать фильм Найди меня, Леня! бесплатно
    Найди меня, Леня! скачать торрент в хорошем качестве
    Найди меня, Леня! смотреть онлайн бесплатно в хорошем качестве
    Вы не можете начинать темы
    Вы не можете отвечать на сообщения
    Вы не можете редактировать свои сообщения
    Вы не можете удалять свои сообщения
    Вы не можете голосовать в опросах
    Вы не можете прикреплять файлы к сообщениям
    Вы можете скачивать файлы