1 сезон

3 сезон

iTunes

1

Line

MVO

iTunes

13

1 сезон

RePack

30

Deluxe

pack

Лицензия

ВАЖНО

ИГРА 18+

pack

RePack

MK11

RePack

jed

RePack

fifa19

RePack

RDR2

RePack

NEED FOR SPEED™ PAYBACK

4 сезон

9 сезон

Бесстыжие 9 сезон

Все сериалы

все сериалы на PB.wtf

RePack

FAR CRY 5

Anonymous, доброй ночи, мы катастрофически не успеваем собрать деньги на оплату серверов, помогите нам пожалуйста 5,10,15р., для нас важна любая помощь . В качестве благодарности мы отключим Вам всю рекламу на сайте (укажите свой ник в строку Ваше имя)!

×
  
Magnet ссылка

День независимости: Возрождение / Independence Day: Resurgence (Роланд Эммерих) [2016, фантастика, боевик, приключения, WEB-DLRip-AVC] Дублированный [iTunes] от R.G.Resident pb.wtf

День независимости: Возрождение через торрент pb.wtf

Размер: 1.46 GB | Добавлен: 4 года 10 мес. назад | Торрент скачан:342 раза
Скачать  

29-09-2016 12:24 День независимости: Возрождение Скачать торрент  

День независимости: Возрождение / Independence Day: Resurgence
««У нас было двадцать лет на подготовку. У них тоже»»


Год выпуска: 2016
Страна: США
Жанр: фантастика, боевик, приключения

Продолжительность: 02:00:11
Перевод: Дублированный [iTunes]
Субтитры: Русские (forced,full)
Режиссер: Роланд Эммерих
В ролях:

Лиам Хемсворт (Jake Morrison), Джефф Голдблюм (David Levinson), Джесси Ашер (Dylan Hiller), Билл Пуллман (President Whitmore), Майка Монро (Patricia Whitmore), Села Уорд (President Lanford), Уильям Фихтнер (General Adams), Джадд Хёрш (Julius Levinson), Брент Спайнер (Dr. Brakish Okun), Патрик Ст. Эсприт (Secretary of Defense Tanner), Вивика А. Фокс (Jasmine Hiller), Анджела Бейби (Rain Lao)
Описание:
Используя инопланетные технологии, жители Земли создали специальную программу по защите планеты. Но ничего не может нас спасти от нового, еще более разрушительного и масштабного инопланетного вторжения - только смелость нескольких героев, которые единственные могут спасти наш мир от уничтожения.
Мировая премьера: 20 июня 2016

Качество: WEB-DLRip-AVC Rip by

Формат: MKV
Видео: AVC, 1024x426 (2.40:1), 1357 kbps, 23,976 fps, 0,130 bpp
Аудио: русский / AC3 / 5.1 / 48 kHz / 384 kbps / ||

General
Unique ID : 208265445505568502265757061311642347041 (0x9CAE773DE26D5BB2BD9733296DE62621)
Complete name : E:\RESURGENCE.2016.WEB-DLRip-AVC.by.White Smoke.R.G.Resident.mkv
Format : Matroska
Format version : Version 4 / Version 2
File size : 1.46 GiB
Duration : 2 h 0 min
Overall bit rate : 1 741 kb/s
Movie name : RESURGENCE.2016.WEB-DLRip-AVC.by.White Smoke.R.G.Resident.mkv
Encoded date : UTC 2016-09-29 11:23:25
Writing application : mkvmerge v6.8.0 ('Theme for Great Cities') 64bit built on Mar 2 2014 21:34:26
Writing library : libebml v1.3.0 + libmatroska v1.4.1

Video
ID : 1
Format : AVC
Format/Info : Advanced Video Codec
Format profile : High@L4.1
Format settings, CABAC : Yes
Format settings, ReFrames : 12 frames
Codec ID : V_MPEG4/ISO/AVC
Duration : 2 h 0 min
Bit rate : 1 357 kb/s
Width : 1 024 pixels
Height : 426 pixels
Display aspect ratio : 2.40:1
Frame rate mode : Constant
Frame rate : 23.976 (24000/1001) FPS
Color space : YUV
Chroma subsampling : 4:2:0
Bit depth : 8 bits
Scan type : Progressive
Bits/(Pixel*Frame) : 0.130
Stream size : 1.11 GiB (76%)
Writing library : x264 core 148 r2638 7599210
Encoding settings : cabac=1 / ref=12 / deblock=1:-3:-3 / analyse=0x3:0x113 / me=umh / subme=9 / psy=1 / psy_rd=1.00:0.00 / mixed_ref=1 / me_range=32 / chroma_me=1 / trellis=2 / 8x8dct=1 / cqm=0 / deadzone=21,11 / fast_pskip=1 / chroma_qp_offset=-2 / threads=12 / lookahead_threads=3 / sliced_threads=0 / nr=0 / decimate=1 / interlaced=0 / bluray_compat=0 / constrained_intra=0 / bframes=12 / b_pyramid=2 / b_adapt=2 / b_bias=10 / direct=1 / weightb=0 / open_gop=0 / weightp=2 / keyint=230 / keyint_min=23 / scenecut=40 / intra_refresh=0 / rc_lookahead=40 / rc=2pass / mbtree=1 / bitrate=1357 / ratetol=1.0 / qcomp=0.85 / qpmin=0 / qpmax=69 / qpstep=4 / cplxblur=20.0 / qblur=0.5 / ip_ratio=1.40 / aq=1:1.00
Language : English
Default : Yes
Forced : No

Audio
ID : 2
Format : AC-3
Format/Info : Audio Coding 3
Mode extension : CM (complete main)
Format settings, Endianness : Big
Codec ID : A_AC3
Duration : 2 h 0 min
Bit rate mode : Constant
Bit rate : 384 kb/s
Channel(s) : 6 channels
Channel positions : Front: L C R, Side: L R, LFE
Sampling rate : 48.0 kHz
Frame rate : 31.250 FPS (1536 spf)
Compression mode : Lossy
Stream size : 330 MiB (22%)
Title : [DUB] DD 5.1 @ 384 kbps (iTunes)
Language : Russian
Default : No
Forced : No

Text #1
ID : 3
Format : UTF-8
Codec ID : S_TEXT/UTF8
Codec ID/Info : UTF-8 Plain Text
Title : Forced
Language : Russian
Default : No
Forced : Yes

Text #2
ID : 4
Format : UTF-8
Codec ID : S_TEXT/UTF8
Codec ID/Info : UTF-8 Plain Text
Title : Full-lenth
Language : Russian
Default : No
Forced : No

© Оформление by White Smoke pb.wtf



Скачать День независимости: Возрождение через торрент https://pic1.kartinco.top/images/10/ctpl2.jpg Скачать фильм День независимости: Возрождение через торрент бесплантно в хорошем качестве Описание: Используя инопланетные технологии, жители Земли создали специальную программу по защите планеты. Но ничего не может нас спасти от ... 8.6 10 9
Info! Золотая раздача, скачанное не засчитывается.
Торрент: Зарегистрирован [2016-09-29 12:24] · скачан: 342 раз
Статус: √ проверено
Размер: 1.46 GB
Как cкачать? Как скачать День независимости: Возрождение через торрент | UTorrent

28-11-2019 20:33  

Отключить всю рекламу на сайте

    Дорогой пользователь! Огромная просьба, поблагодарите релизера, оцените раздачу и оставьте свои комментарий, если Вы скачали День независимости: Возрождение через торрент бесплатно! Внесите свою лепту в развитие PiratBit!
    Комментировать посты могут только пользователи прошедшие не сложную регистрацию
    Показать сообщения:    

    День независимости: Возрождение через торрент
    Скачать бесплатно День независимости: Возрождение
    День независимости: Возрождение скачать торрент
    День независимости: Возрождение смотреть онлайн
    Cкачать фильм День независимости: Возрождение бесплатно
    День независимости: Возрождение скачать торрент в хорошем качестве
    День независимости: Возрождение смотреть онлайн бесплатно в хорошем качестве


    Вы не можете начинать темы
    Вы не можете отвечать на сообщения
    Вы не можете редактировать свои сообщения
    Вы не можете удалять свои сообщения
    Вы не можете голосовать в опросах
    Вы не можете прикреплять файлы к сообщениям
    Вы можете скачивать файлы