Ссылка на приватное зеркало нашего сайта всего за 1$. Внимание количество ограничено!!!

2 сезон

iTunes

1 сезон

1

iTunes

iTunes

iTunes

1 сезон

RePack

30

ИГРА 18+

pack

ВАЖНО

!!Акция!!

Alien_RageХит недели

RePack

MK11
pack

Забери бонус

RePack

jed

!!Акция!!

Alien_Rage

RePack

fifa19

RePack

Assassins Creed: Odyssey

RePack

NEED FOR SPEED™ PAYBACK

4 сезон

9 сезон

Бесстыжие 9 сезон

Все сериалы

все сериалы на PB.wtf

RePack

FAR CRY 5
  

Магия / Magic (Ричард Аттенборо) [1978, триллер, драма, мелодрама, BDRip 720p by msltel] MVO pb.wtf

Магия через торрент pb.wtf

Размер: 5.12 GB | Добавлен: 4 года назад | Торрент скачан:14 раз
Скачать  

30-09-2016 05:30 Магия Скачать торрент  

Название: Магия
Оригинальное название: Magic
Год выпуска: 1978
Страна: США
Жанр: триллер, драма, мелодрама
Продолжительность: 01:47:07
Перевод: профессиональный многоголосый

Режиссёр: Ричард Аттенборо

В ролях: Энтони Хопкинс, Энн-Маргрет, Бёрджесс Мередит, Эд Лотер, Э.Дж. Андре, Джерри Хаузер, Дэвид Огден Стайерз, Лиллиэн Рэндольф, Джо Лоури, Роберт Хэкмен

Описание: Корки Уинтерс - чревовещатель. Его выступления вместе с его марионеткой, так называемым, «внутренним голосом» по имени Фэтс имеют большой успех у публики. Но Корки оставляет выступления и возвращается в родные края, где встречает подругу детства Пегги, вышедшую замуж. Корки соблазняет её, благодаря магическим заклинаниям. Он начинает вести размеренную жизнь и, как считает, обрёл душевное равновесие. Но его агент упорно преследует его и требует вернуться на театральную сцену...



Качество: BDRip 720p Сравнение с исходником
Формат: MKV
Видео: MPEG-4 AVC, 6453 Kбит/с, 1280x720, 23,976 кадра/с
Аудио 1: русский, AC3, 192 kbps, 2 ch, 48 kHz [профессиональный многоголосый]
Аудио 2: английский, AC3, 192 kbps, 2 ch, 48 kHz [оригинал]
Субтитры: английские
Общее
Уникальный идентификатор : 204452265413544819693390344730182404936 (0x99D012F2B2A632B09A746DEECA0BCB48)
Полное имя : D:\Video\Magic.1978 BDRip.720p.mkv
Формат : Matroska
Версия формата : Version 4 / Version 2
Размер файла : 5,12 Гбайт
Продолжительность : 1 ч. 47 м.
Общий поток : 6839 Кбит/сек
Дата кодирования : UTC 2016-09-29 11:53:16
Программа кодирования : mkvmerge v8.2.0 ('World of Adventure') 64bit
Библиотека кодирования : libebml v1.3.1 + libmatroska v1.4.2

Видео
Идентификатор : 1
Формат : AVC
Формат/Информация : Advanced Video Codec
Профиль формата : High@L4.1
Параметр CABAC формата : Да
Параметр ReFrames формата : 9 кадров
Идентификатор кодека : V_MPEG4/ISO/AVC
Продолжительность : 1 ч. 47 м.
Битрейт : 6453 Кбит/сек
Ширина : 1280 пикселей
Высота : 720 пикселей
Соотношение сторон : 16:9
Режим частоты кадров : Постоянный
Частота кадров : 23,976 (24000/1001) кадра/сек
Цветовое пространство : YUV
Субдискретизация насыщенности : 4:2:0
Битовая глубина : 8 бит
Тип развёртки : Прогрессивная
Бит/(Пиксели*Кадры) : 0.292
Размер потока : 4,83 Гбайт (94%)
Библиотека кодирования : x264 core 146 r2538 121396c
Настройки программы : cabac=1 / ref=9 / deblock=1:-3:-3 / analyse=0x3:0x113 / me=umh / subme=10 / psy=1 / psy_rd=1.00:0.15 / mixed_ref=1 / me_range=32 / chroma_me=1 / trellis=2 / 8x8dct=1 / cqm=0 / deadzone=21,11 / fast_pskip=1 / chroma_qp_offset=-3 / threads=6 / lookahead_threads=1 / sliced_threads=0 / nr=0 / decimate=1 / interlaced=0 / bluray_compat=0 / constrained_intra=0 / bframes=14 / b_pyramid=2 / b_adapt=2 / b_bias=0 / direct=1 / weightb=1 / open_gop=0 / weightp=2 / keyint=230 / keyint_min=23 / scenecut=40 / intra_refresh=0 / rc_lookahead=40 / rc=crf / mbtree=0 / crf=21.0 / qcomp=0.60 / qpmin=0 / qpmax=69 / qpstep=4 / vbv_maxrate=40000 / vbv_bufsize=50000 / crf_max=0.0 / nal_hrd=none / filler=0 / ip_ratio=1.40 / pb_ratio=1.30 / aq=1:1.00
Язык : English
Default : Да
Forced : Нет

Аудио #1
Идентификатор : 2
Формат : AC-3
Формат/Информация : Audio Coding 3
Расширение режима : CM (complete main)
Параметр Endianness формата : Big
Идентификатор кодека : A_AC3
Продолжительность : 1 ч. 47 м.
Вид битрейта : Постоянный
Битрейт : 192 Кбит/сек
Каналы : 2 канала
Расположение каналов : Front: L R
Частота : 48,0 КГц
Частота кадров : 31,250 кадров/сек (1536 spf)
Метод сжатия : С потерями
Размер потока : 147 Мбайт (3%)
Заголовок : MVO
Язык : Russian
Default : Да
Forced : Нет

Аудио #2
Идентификатор : 3
Формат : AC-3
Формат/Информация : Audio Coding 3
Расширение режима : CM (complete main)
Параметр Endianness формата : Big
Идентификатор кодека : A_AC3
Продолжительность : 1 ч. 47 м.
Вид битрейта : Постоянный
Битрейт : 192 Кбит/сек
Каналы : 2 канала
Расположение каналов : Front: L R
Частота : 48,0 КГц
Частота кадров : 31,250 кадров/сек (1536 spf)
Метод сжатия : С потерями
Размер потока : 147 Мбайт (3%)
Заголовок : original
Язык : English
Default : Нет
Forced : Нет

Текст
Идентификатор : 4
Формат : UTF-8
Идентификатор кодека : S_TEXT/UTF8
Идентификатор кодека/Информация : UTF-8 Plain Text
Продолжительность : 1 ч. 42 м.
Битрейт : 59 бит/сек
Count of elements : 1738
Размер потока : 44,4 Кбайт (0%)
Заголовок : английские
Язык : English
Default : Нет
Forced : Нет
pb.wtf



Скачать Магия через торрент http://s019.radikal.ru/i637/1609/5a/bcc593ff1122.jpg Скачать фильм Магия через торрент бесплантно в хорошем качестве Описание: Корки Уинтерс - чревовещатель. Его выступления вместе с его марионеткой, так называемым, «внутренним голосом» по имени Фэтс имеют ... 10 10 2
Info! Золотая раздача, скачанное не засчитывается.
Торрент: Зарегистрирован [2016-09-30 05:30] · скачан: 14 раз
Статус: √ проверено
Размер: 5.12 GB
Как cкачать? Как скачать Магия через торрент | qTorrent

% Раздел Тема Автор DL S | L
* Аниме [HD 720p, 1080p] [ 1.59 GB ] Непутёвый ученик в школе магии: Гость / Mahouka Koukou no Rettousei: Raihousha-hen / Сезон 1 / Серии 1-4 из 13 [2020 Экшен сверхъестественное магия романтика школа HDTV 1080p] [MVO] GuruBrain Скачать
2 | 0
Иностранные мультфильмы [ 1.46 GB ] Лего Шазам: Магия и монстры / LEGO DC: Shazam - Magic & Monsters [2020 мультфильм BDRip] MVO [Flarrow Films] Twi7ter Скачать
49 | 0
Документальные фильмы и телепередачи [ 4 GB ] Смертельная магия / Death by Magic / Сезон: 1 / Серии: 1-8 из 8 [2018 документальный шоу фокусы WEB-DLRip] [MVO] killermax2013 Скачать
1 | 0
Документальные фильмы и телепередачи [ 13.57 GB ] Смертельная магия / Death by Magic / Сезон: 1 / Серии: 1-8 из 8 [2018 документальный шоу фокусы WEB-DL 1080p] [MVO] killermax2013 Скачать
1 | 0
T Фильмы (мультфильмы) cо спонсором показа (Новинки AVI/MKV) [ 1.36 GB ] Учитывая любовь и другую магию / Considering Love and Other Magic [2017 WEB-DLRip] MVO ["Синема УС"] bober100 Скачать
1 | 0
T Фильмы (мультфильмы) cо спонсором показа (Новинки AVI/MKV) [ 3.19 GB ] Учитывая любовь и другую магию / Considering Love and Other Magic [2017 WEB-DL 720p] MVO ["Синема УС"] bober100 Скачать
1 | 0
Фильмы [HD 720p, 1080p] (Хороший звук DUB, MVO) [ 11.93 GB ] Магия / Magic [1978 BDRip 1080p by msltel] MVO msltel Скачать
1 | 0

28-11-2019 20:33  

Отключить всю рекламу на сайте

    Дорогой пользователь! Огромная просьба, поблагодарите релизера, оцените раздачу и оставьте свои комментарий, если Вы скачали Магия через торрент бесплатно! Внесите свою лепту в развитие PiratBit!
    Комментировать посты могут только пользователи прошедшие не сложную регистрацию
    Показать сообщения:    

    Магия через торрент
    Скачать бесплатно Магия
    Магия скачать торрент
    Магия смотреть онлайн
    Cкачать фильм Магия бесплатно
    Магия скачать торрент в хорошем качестве
    Магия смотреть онлайн бесплатно в хорошем качестве


    Вы не можете начинать темы
    Вы не можете отвечать на сообщения
    Вы не можете редактировать свои сообщения
    Вы не можете удалять свои сообщения
    Вы не можете голосовать в опросах
    Вы не можете прикреплять файлы к сообщениям
    Вы можете скачивать файлы