Ссылка на приватное зеркало нашего сайта всего за 1$. Внимание количество ограничено!!!

2 сезон

iTunes

1 сезон

1

iTunes

iTunes

iTunes

1 сезон

RePack

30

ИГРА 18+

pack

ВАЖНО

!!Акция!!

Alien_RageХит недели

RePack

MK11
pack

Забери бонус

RePack

jed

!!Акция!!

Alien_Rage

RePack

fifa19

RePack

Assassins Creed: Odyssey

RePack

NEED FOR SPEED™ PAYBACK

4 сезон

9 сезон

Бесстыжие 9 сезон

Все сериалы

все сериалы на PB.wtf

RePack

FAR CRY 5
  

Москва. Центральный округ / 4 сезон / 18 серий из 18 (Максим Субботин, Игорь Кечаев) [2015 г., криминал, HDTVRip 720p] pb.wtf

Москва. Центральный округ через торрент pb.wtf

Размер: 20.27 GB | Добавлен: 4 года назад | Торрент скачан:7 раз
Скачать  

30-09-2016 10:26 Москва. Центральный округ Скачать торрент  

Москва. Центральный округ 4
Год выпуска: 2015
Страна: Россия
Жанр: криминал
Продолжительность: 18 x ~ 00:45:00
Субтитры: отсутствуют

Режиссер: Максим Субботин, Игорь Кечаев



В ролях:

Владимир Меньшов, Сергей Горобченко, Алексей Колган, Анна Пескова, Амаду Мамадаков, Макс Бирюков, Петр Томашевский, Александра Тюфтей, Дарья Фекленко, Серафима Низовская, Анатолий Хропов, Юлия Полынская, Фёдор Румянцев, Илья Щербинин, Анна Леванова и др.

Описание:

Главная нить сюжета детективного сериала «Москва. Центральный округ» – противостояние представителей двух поколений: молодого амбициозного сыщика и майора, настоящего сыскного волка. Главный герой, молодой сыщик Репейников, внук легендарного полковника милиции, должен был ехать во Францию для прохождения службы в Интерполе. Но в последний момент в Интерпол направили кого-то другого, и молодой лейтенант попал на службу в Управление внутренних дел по Центральному округу столицы…

Качество: HDTVRip 720p
Формат: MKV
Видео кодек: H.264
Аудио кодек: AC3

Видео: 1280х720р (16:9), 25 fps, AVC MPEG-4 (x264), High@L4.1 ~ 3500 kbps avg, 0.152 bit/pixel
Аудио#1: 48 kHz, AC3, 2/0 (L,R) ch, ~192 kbps
скриншот  скриншот  скриншот  скриншот  
Общее
Уникальный идентификатор : 213281736500232183086691431273721558030 (0xA074917B901B7F88873983F1E8BCF40E)
Полное имя : C:\Moskva.Centralnyj.okrug-4.2014.HDTVRip.(720p).\Moskva.Centralnyj.okrug-4.(01.seriya.iz.32).2014.HDTVRip.(720p).mkv
Формат : Matroska
Версия формата : Version 2
Размер файла : 1,15 Гбайт
Продолжительность : 44 м.
Общий поток : 3694 Кбит/сек
Дата кодирования : UTC 2016-08-22 21:41:08
Программа кодирования : mkvmerge v7.8.0 ('River Man') 32bit built on Apr 3 2015 12:11:22
Библиотека кодирования : libebml v1.3.1 + libmatroska v1.4.2

Видео
Идентификатор : 1
Формат : AVC
Формат/Информация : Advanced Video Codec
Профиль формата : High@L4.1
Параметр CABAC формата : Да
Параметр ReFrames формата : 9 кадров
Идентификатор кодека : V_MPEG4/ISO/AVC
Продолжительность : 44 м.
Битрейт : 3500 Кбит/сек
Ширина : 1280 пикселей
Высота : 720 пикселей
Соотношение сторон : 16:9
Режим частоты кадров : Постоянный
Частота кадров : 25,000 кадров/сек
Цветовое пространство : YUV
Субдискретизация насыщенности : 4:2:0
Битовая глубина : 8 бит
Тип развёртки : Прогрессивная
Бит/(Пиксели*Кадры) : 0.152
Размер потока : 1,07 Гбайт (93%)
Библиотека кодирования : x264 core 146 r2538 121396c
Настройки программы : cabac=1 / ref=9 / deblock=1:-3:-3 / analyse=0x3:0x113 / me=umh / subme=11 / psy=1 / psy_rd=1.00:0.20 / mixed_ref=1 / me_range=32 / chroma_me=1 / trellis=2 / 8x8dct=1 / cqm=0 / deadzone=21,11 / fast_pskip=0 / chroma_qp_offset=-3 / threads=4 / lookahead_threads=1 / sliced_threads=0 / nr=0 / decimate=0 / interlaced=0 / bluray_compat=0 / constrained_intra=0 / bframes=12 / b_pyramid=2 / b_adapt=2 / b_bias=0 / direct=3 / weightb=1 / open_gop=0 / weightp=2 / keyint=250 / keyint_min=25 / scenecut=40 / intra_refresh=0 / rc_lookahead=60 / rc=2pass / mbtree=0 / bitrate=3500 / ratetol=1.0 / qcomp=0.60 / qpmin=0 / qpmax=69 / qpstep=4 / cplxblur=20.0 / qblur=0.5 / vbv_maxrate=14000 / vbv_bufsize=14000 / nal_hrd=none / filler=0 / ip_ratio=1.40 / pb_ratio=1.30 / aq=3:0.80
Default : Да
Forced : Нет
Цветовой диапазон : Limited
Основные цвета : BT.709
Характеристики трансфера : BT.709
Коэффициенты матрицы : BT.709

Аудио
Идентификатор : 2
Формат : AC-3
Формат/Информация : Audio Coding 3
Расширение режима : CM (complete main)
Параметр Endianness формата : Big
Идентификатор кодека : A_AC3
Продолжительность : 44 м.
Вид битрейта : Постоянный
Битрейт : 192 Кбит/сек
Каналы : 2 канала
Расположение каналов : Front: L R
Частота : 48,0 КГц
Метод сжатия : С потерями
Размер потока : 61,4 Мбайт (5%)
Default : Да
Forced : Нет
pb.wtf



Скачать Москва. Центральный округ через торрент http://pic1.kartinco.top/images/10/4kksb.jpg Скачать фильм Москва. Центральный округ через торрент бесплантно в хорошем качестве Описание: Главная нить сюжета детективного сериала «Москва. Центральный округ» – противостояние представителей двух поколений: молодого ... 8.8 10 4
Info! Серебряная раздача, засчитывается только 50% скачанного.
Торрент: Зарегистрирован [2016-09-30 10:26] · скачан: 7 раз
Статус: √ проверено
Размер: 20.27 GB
Как cкачать? Как скачать Москва. Центральный округ через торрент | qTorrent

28-11-2019 20:33  

Отключить всю рекламу на сайте

03-10-2016 11:51 Москва. Центральный округ Скачать торрент  

Всем приятного просмотра) pb.wtf



    Дорогой пользователь! Огромная просьба, поблагодарите релизера, оцените раздачу и оставьте свои комментарий, если Вы скачали Москва. Центральный округ через торрент бесплатно! Внесите свою лепту в развитие PiratBit!
    Комментировать посты могут только пользователи прошедшие не сложную регистрацию
    Показать сообщения:    

    Москва. Центральный округ через торрент
    Скачать бесплатно Москва. Центральный округ
    Москва. Центральный округ скачать торрент
    Москва. Центральный округ смотреть онлайн
    Cкачать фильм Москва. Центральный округ бесплатно
    Москва. Центральный округ скачать торрент в хорошем качестве
    Москва. Центральный округ смотреть онлайн бесплатно в хорошем качестве


    Вы не можете начинать темы
    Вы не можете отвечать на сообщения
    Вы не можете редактировать свои сообщения
    Вы не можете удалять свои сообщения
    Вы не можете голосовать в опросах
    Вы не можете прикреплять файлы к сообщениям
    Вы можете скачивать файлы