Ссылка на приватное зеркало всего за 1$. Внимание количество ограничено!!!

OK

1+1

iTunes

мы

OK

1

WEB-DLRip

Джокер

Пифагор

Ведьмак / The Witcher сериал

iTunes

ПШазам

ОК

Оно 2

iTunes

30
pack

Вам бонус

ВАЖНО

!!Акция!!

Alien_RageХит недели

RePack

Resident Evil 21

ИГРА 18+

pack

RePack

jed

RePack

fifa19

RePack

Assassins Creed: Odyssey

RePack

NEED FOR SPEED™ PAYBACK

4 сезон

9 сезон

Бесстыжие 9 сезон

Все сериалы

все сериалы на PB.wtf

RePack

FAR CRY 5
  

Дьявольская музыка / Дьявольская шутка / Scherzo Diabolico (Адриан Гарсиа Больяно) [2015 г., ужасы, триллер, комедия, WEB-DLRip] VO [Xixidok] pb.wtf

Дьявольская музыка через торрент pb.wtf

Размер: 1.37 GB | Добавлен: 3 года 3 мес. назад | Торрент скачан:69 раз
Скачать  

30-09-2016 12:13 Дьявольская музыка Скачать торрент  

Дьявольская музыка / Дьявольская шутка / Scherzo Diabolico
Год выпуска: 2015
Страна: Мексика, США
Жанр: ужасы, триллер, комедия
Продолжительность: 01:30:39
Перевод: Любительский (одноголосый) [Xixidok]
Субтитры: отсутствуют

Режиссер: Адриан Гарсиа Больяно

rating


В ролях:

Франсиско Баррейро, , Хорхе Молина, Вита Варгас, Тито Гильен Пабло Гиса Кёстингер…

Описание:

Скучающий бухгалтер не может получить повышение. Он предан работе, имеет занудную жену, которая постоянно пилит его. Он разрабатывает схему, чтобы получить то, что он должен получить, как он считает. Повышение. После выполнения его хорошо продуманного плана похищения дочки начальника, жизнь налаживается, пока в голове у похищенной девочки не заиграла эта музыка.

Качество: WEB-DLRip
Формат: AVI
Видео кодек: XviD
Аудио кодек: AC3

Видео: 720x304 (2.37:1), 23.976 fps, XviD MPEG-4 ~1757 kbps avg, 0.34 bit/pixel
Аудио#1: Русский:44.1 kHz, AC3 Dolby Digital, 2/0 (L,R) ch, ~192 kbps [Любительский (одноголосый)]
Аудио#2: Английский:44.1 kHz, AC3 Dolby Digital, 2/0 (L,R) ch, ~192 kbps [Оригинал)]
скриншот  скриншот  скриншот  скриншот  скриншот  
Общее
Полное имя : C:\Users\Scherzo Diabolico.avi
Формат : AVI
Формат/Информация : Audio Video Interleave
Профиль формата : OpenDML
Размер файла : 1,37 Гбайт
Продолжительность : 1 ч. 30 м.
Общий поток : 2159 Кбит/сек
Название фильма : Rip by basma4i
Программа кодирования : Lavf57.41.100

Видео
Идентификатор : 0
Формат : MPEG-4 Visual
Профиль формата : Simple@L5
Параметр BVOP формата : 2
Параметр QPel формата : Нет
Параметр GMC формата : Без точки перехода
Параметр матрицы формата : Default (H.263)
Режим смешивания : Сжатый битовый поток
Идентификатор кодека : XVID
Идентификатор кодека/Подсказка : XviD
Продолжительность : 1 ч. 30 м.
Битрейт : 1757 Кбит/сек
Ширина : 720 пикселей
Высота : 304 пикселя
Соотношение сторон : 2,35:1
Частота кадров : 23,976 (24000/1001) кадра/сек
Цветовое пространство : YUV
Субдискретизация насыщенности : 4:2:0
Битовая глубина : 8 бит
Тип развёртки : Прогрессивная
Метод сжатия : С потерями
Бит/(Пиксели*Кадры) : 0.335
Размер потока : 1,11 Гбайт (81%)
Библиотека кодирования : XviD 67

Аудио #1
Идентификатор : 1
Формат : AC-3
Формат/Информация : Audio Coding 3
Расширение режима : CM (complete main)
Параметр Endianness формата : Big
Идентификатор кодека : 2000
Продолжительность : 1 ч. 30 м.
Вид битрейта : Постоянный
Битрейт : 192 Кбит/сек
Каналы : 2 канала
Расположение каналов : Front: L R
Частота : 44,1 КГц
Частота кадров : 28,711 кадров/сек (1536 spf)
Битовая глубина : 16 бит
Метод сжатия : С потерями
Размер потока : 124 Мбайт (9%)
Выравнивание : Соединение по промежуткам
Продолжительность промежутка : 35 мс. (0,84 видеокадр)

Аудио #2
Идентификатор : 2
Формат : AC-3
Формат/Информация : Audio Coding 3
Расширение режима : CM (complete main)
Параметр Endianness формата : Big
Идентификатор кодека : 2000
Продолжительность : 1 ч. 30 м.
Вид битрейта : Постоянный
Битрейт : 192 Кбит/сек
Каналы : 2 канала
Расположение каналов : Front: L R
Частота : 44,1 КГц
Частота кадров : 28,711 кадров/сек (1536 spf)
Битовая глубина : 16 бит
Метод сжатия : С потерями
Размер потока : 124 Мбайт (9%)
Выравнивание : Соединение по промежуткам
Продолжительность промежутка : 35 мс. (0,84 видеокадр)

Общее
Полное имя : C:\Users\Scherzo Diabolico.avi.torrent
Размер файла : 14,2 Кбайт

Общее
Полное имя : C:\Users\Scherzo Diabolico.avi\Thumbs.db
Размер файла : 4,00 Кбайт
pb.wtf



Скачать Дьявольская музыка через торрент https://st.kp.yandex.net/images/film_iphone/iphone360_852837.jpg Скачать фильм Дьявольская музыка через торрент бесплантно в хорошем качестве Описание: Скучающий бухгалтер не может получить повышение. Он предан работе, имеет занудную жену, которая постоянно пилит его. Он ... 8.7 10 7
Торрент: Зарегистрирован [2016-09-30 12:13] · скачан: 69 раз
Статус: T временная
Размер: 1.37 GB
Как cкачать? Как скачать Дьявольская музыка через торрент | qTorrent

28-11-2019 20:33  

Отключить всю рекламу на сайте

30-09-2016 15:55 Дьявольская музыка Скачать торрент  

под пельмешки пойдет pb.wtf



04-10-2016 07:05 Дьявольская музыка Скачать торрент  

patrol писал(а):

под пельмешки пойдет

Это точно)pb.wtf



    Дорогой пользователь! Огромная просьба, поблагодарите релизера, оцените раздачу и оставьте свои комментарий, если Вы скачали Дьявольская музыка через торрент бесплатно! Внесите свою лепту в развитие PiratBit!
    Комментировать посты могут только пользователи прошедшие не сложную регистрацию
    Показать сообщения:    

    Дьявольская музыка через торрент
    Скачать бесплатно Дьявольская музыка
    Дьявольская музыка скачать торрент
    Дьявольская музыка смотреть онлайн
    Cкачать фильм Дьявольская музыка бесплатно
    Дьявольская музыка скачать торрент в хорошем качестве
    Дьявольская музыка смотреть онлайн бесплатно в хорошем качестве


    Вы не можете начинать темы
    Вы не можете отвечать на сообщения
    Вы не можете редактировать свои сообщения
    Вы не можете удалять свои сообщения
    Вы не можете голосовать в опросах
    Вы не можете прикреплять файлы к сообщениям
    Вы можете скачивать файлы