Ссылка на приватное зеркало всего за 1$. Внимание количество ограничено!!!

iTunes

1+1

iTunes

мы

WEB-DL

1

iTunes

Чернобыль

iTunes

Ральф против интернета

Лицензия

ПШазам

Лицензия

Оно 2

Лицензия

30
pack

Вам бонус

ВАЖНО

!!Акция!!

Alien_RageХит недели

RePack

Resident Evil 21

ИГРА 18+

pack

RePack

jed

!!Акция!!

Alien_Rage

RePack

fifa19

RePack

Assassins Creed: Odyssey

RePack

NEED FOR SPEED™ PAYBACK

3 сезон

9 сезон

Бесстыжие 9 сезон

Все сериалы

все сериалы на PB.wtf

RePack

FAR CRY 5
Ребята, катастрофически не хватает 1900р. для оплаты серверов за Октябрь (всвязи с блокировками трафик упал в 3 раза), 1-2р., выручайте.
  

Будьте моим мужем (Алла Сурикова ) [1981, драма, мелодрама, комедия, HDRip-AVC] pb.wtf

Будьте моим мужем через торрент pb.wtf

Размер: 2.43 GB | Добавлен: 3 года 2 мес. назад | Торрент скачан:20 раз
Скачать  

30-09-2016 13:24 Будьте моим мужем Скачать торрент  

Будьте моим мужем

Год выпуска: 1981
Страна: СССР
Жанр: драма, мелодрама, комедия

Продолжительность: 01:22:10
Перевод: Не требуется [Русский]
Режиссер: Алла Сурикова
В ролях: Елена Проклова (Наталья Сергеевна), Андрей Миронов (Виктор), Филипп Адамович (Илья Костиков), Нина Русланова (Альбина Петровна), Наталья Крачковская (курортница-театралка), Владимир Басов (пляжник в одинаковых с Виктором джинсах), Антон Табаков (курортник-дикарь), Баадур Цуладзе (милиционер), Олег Анофриев (курортник-ветеринар), Николай Гринько (курортник), Георгий Штиль (курортник), Леонард Саркисов (Ахиллес)
Описание:
Детский врач отправляется в отпуск на Юг, где его услуги в качестве… мужа понадобились молодой и очень красивой женщине. Дело в том, что одной с ребенком ей никто сдавать квартиру в курортном городе не хотел. Нравы тогда такие были.
Вот ей и понадобился человек, который мог бы разыграть из себя ее мужа для поселения в частном секторе. Ну а как у них сложатся отношения и в других областях, зритель предпочтет узнать сам. Легкая музыкальная комедия с прекрасными актерами.

Качество: HDRip-AVC
Формат: MKV
Видео: AVC, 976x704 (1.386), 3960 kbps, 25 fps, 0,231 bpp
Аудио: русский / AC3 / 2.0 / 48 kHz / 256 kbps /

General
Unique ID Будьте моим мужем.mkv
Format : Matroska
Format version : Version 4 / Version 2
File size : 2.43 GiB
Duration : 1 h 22 min
Overall bit rate : 4 235 kb/s
Movie name : Будьте моим мужем
Encoded date : UTC 2016-09-29 17:49:38
Writing application : mkvmerge v9.4.2 ('So High') 64bit
Writing library : libebml v1.3.4 + libmatroska v1.4.5

Video
ID : 1
Format : AVC
Format/Info : Advanced Video Codec
Format profile : High@L4
Format settings, CABAC : Yes
Format settings, ReFrames : 10 frames
Codec ID : V_MPEG4/ISO/AVC
Duration : 1 h 22 min
Bit rate : 3 960 kb/s
Width : 976 pixels
Height : 704 pixels
Display aspect ratio : 1.386
Frame rate mode : Constant
Frame rate : 25.000 FPS
Color space : YUV
Chroma subsampling : 4:2:0
Bit depth : 8 bits
Scan type : Progressive
Bits/(Pixel*Frame) : 0.231
Stream size : 2.28 GiB (94%)
Writing library : x264 core 146 r2538 121396c
Encoding settings : cabac=1 / ref=10 / deblock=1:-1:1 / analyse=0x3:0x133 / me=umh / subme=11 / psy=1 / psy_rd=1.25:0.35 / mixed_ref=1 / me_range=30 / chroma_me=1 / trellis=2 / 8x8dct=1 / cqm=0 / deadzone=21,11 / fast_pskip=1 / chroma_qp_offset=-4 / threads=12 / lookahead_threads=1 / sliced_threads=0 / nr=0 / decimate=0 / interlaced=0 / bluray_compat=0 / constrained_intra=0 / bframes=6 / b_pyramid=2 / b_adapt=1 / b_bias=0 / direct=1 / weightb=1 / open_gop=1 / weightp=2 / keyint=250 / keyint_min=25 / scenecut=40 / intra_refresh=0 / rc_lookahead=40 / rc=abr / mbtree=1 / bitrate=3960 / ratetol=1.0 / qcomp=0.60 / qpmin=0 / qpmax=69 / qpstep=4 / ip_ratio=1.40 / aq=1:1.10
Language : Russian
Default : Yes
Forced : Yes
Color range : Limited
Color primaries : Generic film

Audio
ID : 2
Format : AC-3
Format/Info : Audio Coding 3
Mode extension : CM (complete main)
Format settings, Endianness : Big
Codec ID : A_AC3
Duration : 1 h 22 min
Bit rate mode : Constant
Bit rate : 256 kb/s
Channel(s) : 2 channels
Channel positions : Front: L R
Sampling rate : 48.0 kHz
Frame rate : 31.250 FPS (1536 spf)
Compression mode : Lossy
Stream size : 150 MiB (6%)
Language : Russian
Default : Yes
Forced : Yes
Скриншоты:
pb.wtf



Скачать Будьте моим мужем через торрент http://i5.imageban.ru/out/2016/09/30/50021e8abf04561a7af4737350327fa8.jpg Скачать фильм Будьте моим мужем через торрент бесплантно в хорошем качестве Описание: Детский врач отправляется в отпуск на Юг, где его услуги в качестве… мужа понадобились молодой и очень красивой женщине. Дело в ... 10 10 3
Info! Золотая раздача, скачанное не засчитывается.
Торрент: Зарегистрирован [2016-09-30 13:24] · скачан: 20 раз
Статус: √ проверено
Размер: 2.43 GB
Как cкачать? Как скачать Будьте моим мужем через торрент | qTorrent

% Раздел Тема Автор DL S | L
Кино СССР [ 710 MB ] Будьте моим мужем [1981 WEB-DLRip] koenig Скачать
1 | 0

28-11-2019 20:33  

Отключить всю рекламу на сайте

    Дорогой пользователь! Огромная просьба, поблагодарите релизера, оцените раздачу и оставьте свои комментарий, если Вы скачали Будьте моим мужем через торрент бесплатно! Внесите свою лепту в развитие PiratBit!
    Комментировать посты могут только пользователи прошедшие не сложную регистрацию
    Показать сообщения:    

    Будьте моим мужем через торрент
    Скачать бесплатно Будьте моим мужем
    Будьте моим мужем скачать торрент
    Будьте моим мужем смотреть онлайн
    Cкачать фильм Будьте моим мужем бесплатно
    Будьте моим мужем скачать торрент в хорошем качестве
    Будьте моим мужем смотреть онлайн бесплатно в хорошем качестве


    Вы не можете начинать темы
    Вы не можете отвечать на сообщения
    Вы не можете редактировать свои сообщения
    Вы не можете удалять свои сообщения
    Вы не можете голосовать в опросах
    Вы не можете прикреплять файлы к сообщениям
    Вы можете скачивать файлы