новый адрес пиратбит piratbit
Мега распродажа FORZA HORIZON 4 ULTIMATE+ВСЕ DLC+ОНЛАЙН всего за 499р. 349 руб. (супер цена). Внимание количество ограничено!!!

iTunes

1+1

iTunes

мы

iTunes

1

iTunes

Чернобыль

iTunes

Ральф против интернета

Лицензия

ПШазам

Лицензия

Игра престолов

Лицензия

30
pack

ВАЖНО

!!Акция!!

Alien_RageХит недели

RePack

Resident Evil 21

ИГРА 18+

pack

RePack

Metro:Exodus

!!Акция!!

Alien_Rage

RePack

fifa19

RePack

Assassins Creed: Odyssey

RePack

NEED FOR SPEED™ PAYBACK

3 сезон

9 сезон

Бесстыжие 9 сезон

Все сериалы

все сериалы на PB.wtf

RePack

FAR CRY 5
Ребята, катастрофически не хватает 1900р. для оплаты серверов за Октябрь (всвязи с блокировками трафик упал в 3 раза), 1-2р., выручайте.
  

Иди и смотри (Элем Климов ) [1985, драма, военный, BDRip-AVC] pb.wtf

Иди и смотри через торрент pb.wtf

Раздают: 1 [ 0 KB/s ]
Размер: 2.84 GB | Добавлен: 3 года 1 мес. назад | Торрент скачан:209 раз
Скачать  

30-09-2016 14:29 Иди и смотри Скачать торрент  

Иди и смотри

Год выпуска: 1985
Страна: СССР
Жанр: драма, военный

Продолжительность: 02:22:56
Перевод: Не требуется [Русский]
Субтитры: русский, английский
Режиссер: Элем Климов
В ролях: Алексей Кравченко (Флёра Гайшун), Ольга Миронова (Глаша), Любомирас Лауцявичюс (Косач), Владас Багдонас (Рубеж), Юри Лумисте (немецкий офицер), Виктор Лоренц (майор, командир карательного отряда), Казимир Рабецкий, Евгений Тиличеев (Гежель, немецкий переводчик), Александр Берда (начштаба партизанского отряда), Г. Вельц (немец), В. Васильев, Игорь Гневашев (еврей из деревни)
Описание:
Картина основана на документальных фактах и обращается к «Хатынской повести» Адамовича. Авторами выбрано именно то место и те события, которые стали символом народной беды и страдания. Флера - шестнадцатилетний мальчишка, откопавший среди обрывков колючей проволоки, ржавых пулеметных лент и простреленных касок карабин, и отправившийся в лес к партизанам. В начале фильма он совсем ребенок. В конце, пройдя через ужас карательной акции фашистов, становится взрослым, пугающе взрослым и даже - старым. Война исказила когда-то нежные, детские черты и превратила их в старческие морщины.

Качество: BDRip-AVC
Формат: MKV
Видео: AVC, 768x576 (4:3), 2400 kbps, 23,976 fps, 0,226 bpp
Аудио: русский / AC3 / 5.1 / 48 kHz / 448 kbps /

General
Unique ID
Complete name Иди и смотри.mkv
Format : Matroska
Format version : Version 1
File size : 2.84 GiB
Duration : 2 h 22 min
Overall bit rate : 2 850 kb/s
Encoded date : UTC 2016-09-17 15:56:59
Writing application : mkvmerge v2.4.1 ('Use Me') built on Dec 5 2008 18:30:05
Writing library : libebml v0.7.7 + libmatroska v0.8.1

Video
ID : 1
Format : AVC
Format/Info : Advanced Video Codec
Format profile : High@L4.1
Format settings, CABAC : Yes
Format settings, ReFrames : 10 frames
Codec ID : V_MPEG4/ISO/AVC
Duration : 2 h 22 min
Bit rate : 2 400 kb/s
Width : 768 pixels
Height : 576 pixels
Display aspect ratio : 4:3
Frame rate mode : Constant
Frame rate : 23.976 (24000/1001) FPS
Color space : YUV
Chroma subsampling : 4:2:0
Bit depth : 8 bits
Scan type : Progressive
Bits/(Pixel*Frame) : 0.226
Stream size : 2.34 GiB (82%)
Title : Иди и смотри (1985)
Writing library : x264 core 148 r2638 7599210
Encoding settings : cabac=1 / ref=10 / deblock=1:-3:-3 / analyse=0x3:0x133 / me=umh / subme=10 / psy=1 / psy_rd=1.00:0.10 / mixed_ref=1 / me_range=48 / chroma_me=1 / trellis=2 / 8x8dct=1 / cqm=0 / deadzone=21,11 / fast_pskip=0 / chroma_qp_offset=-3 / threads=6 / lookahead_threads=1 / sliced_threads=0 / nr=0 / decimate=1 / interlaced=0 / bluray_compat=0 / constrained_intra=0 / bframes=5 / b_pyramid=2 / b_adapt=2 / b_bias=0 / direct=3 / weightb=1 / open_gop=0 / weightp=2 / keyint=240 / keyint_min=22 / scenecut=40 / intra_refresh=0 / rc_lookahead=40 / rc=2pass / mbtree=1 / bitrate=2400 / ratetol=1.0 / qcomp=0.60 / qpmin=10 / qpmax=51 / qpstep=4 / cplxblur=20.0 / qblur=0.5 / ip_ratio=1.40 / aq=1:1.00
Language : Russian
Default : Yes
Forced : No

Audio
ID : 2
Format : AC-3
Format/Info : Audio Coding 3
Mode extension : CM (complete main)
Format settings, Endianness : Big
Codec ID : A_AC3
Duration : 2 h 22 min
Bit rate mode : Constant
Bit rate : 448 kb/s
Channel(s) : 6 channels
Channel positions : Front: L C R, Side: L R, LFE
Sampling rate : 48.0 kHz
Frame rate : 31.250 FPS (1536 spf)
Compression mode : Lossy
Stream size : 458 MiB (16%)
Title : AC3 (Оригинал)
Language : Russian
Default : Yes
Forced : No

Text #1
ID : 3
Format : UTF-8
Codec ID : S_TEXT/UTF8
Codec ID/Info : UTF-8 Plain Text
Title : Русские
Language : Russian
Default : No
Forced : No

Text #2
ID : 4
Format : UTF-8
Codec ID : S_TEXT/UTF8
Codec ID/Info : UTF-8 Plain Text
Title : Английские
Language : English
Default : No
Forced : No
Скриншоты:
pb.wtf



Скачать Иди и смотри через торрент http://i4.imageban.ru/out/2016/09/30/4dce91d282d73ba6d459d1a9e87e8d51.jpg Скачать фильм Иди и смотри через торрент бесплантно в хорошем качестве Описание: Картина основана на документальных фактах и обращается к «Хатынской повести» Адамовича. Авторами выбрано именно то место и те ... 10 10 8
Info! Золотая раздача, скачанное не засчитывается.
Торрент: Зарегистрирован [2016-09-30 14:29] · скачан: 209 раз
Статус: √ проверено
Размер: 2.84 GB
Как cкачать? Как скачать Иди и смотри через торрент | qTorrent

% Раздел Тема Автор DL S | L
Кино СССР [ 2.19 GB ] Иди и смотри [1985 военный DVDRip] Sудья Скачать
1 | 0
Кино СССР [ 1.71 GB ] Иди и смотри [1985 военный DVDRip] pol5111 Скачать
1 | 0


>> Регистрируемся здесь <<






Отзывы и комментарии о схеме читаем и пишем здесь: ---> Отзывы и комментарии о схеме

Новые благодарочки в телеграм довольных пользователей:
скриншот   скриншот   скриншот   скриншот   скриншот

30-09-2016 16:38 Иди и смотри Скачать торрент  

Сильный фильм!pb.wtf



30-09-2016 17:16 Иди и смотри Скачать торрент  

Потрясающий фильм.pb.wtf



30-09-2016 17:56 Иди и смотри Скачать торрент  

В 1985 году фильм был выдвинут от СССР в число претендентов на премию «Оскар» в номинации «Лучший фильм на иностранном языке»pb.wtf



    Дорогой пользователь! Огромная просьба, поблагодарите релизера, оцените раздачу и оставьте свои комментарий, если Вы скачали Иди и смотри через торрент бесплатно! Внесите свою лепту в развитие PiratBit!
    Комментировать посты могут только пользователи прошедшие не сложную регистрацию
    Показать сообщения:    

    Иди и смотри через торрент
    Скачать бесплатно Иди и смотри
    Иди и смотри скачать торрент
    Иди и смотри смотреть онлайн
    Cкачать фильм Иди и смотри бесплатно
    Иди и смотри скачать торрент в хорошем качестве
    Иди и смотри смотреть онлайн бесплатно в хорошем качестве


    Вы не можете начинать темы
    Вы не можете отвечать на сообщения
    Вы не можете редактировать свои сообщения
    Вы не можете удалять свои сообщения
    Вы не можете голосовать в опросах
    Вы не можете прикреплять файлы к сообщениям
    Вы можете скачивать файлы