Ссылка на приватное зеркало всего за 1$. Внимание количество ограничено!!!

iTunes

1+1

iTunes

мы

WEB-DL

1

iTunes

Чернобыль

iTunes

Ральф против интернета

Лицензия

ПШазам

Лицензия

Оно 2

Лицензия

30
pack

Вам бонус

ВАЖНО

!!Акция!!

Alien_RageХит недели

RePack

Resident Evil 21

ИГРА 18+

pack

RePack

jed

!!Акция!!

Alien_Rage

RePack

fifa19

RePack

Assassins Creed: Odyssey

RePack

NEED FOR SPEED™ PAYBACK

3 сезон

9 сезон

Бесстыжие 9 сезон

Все сериалы

все сериалы на PB.wtf

RePack

FAR CRY 5
Ребята, катастрофически не хватает 1900р. для оплаты серверов за Октябрь (всвязи с блокировками трафик упал в 3 раза), 1-2р., выручайте.
  

Афера под прикрытием / The Infiltrator (Брэд Фурман) [2016 г., триллер, драма, криминал, биография, HDRip, Дубляж Звук с TS] pb.wtf

Скачать  

30-09-2016 15:43 Афера под прикрытием Скачать торрент  

Афера под прикрытием / The Infiltrator
Год выпуска: 2016
Страна: Великобритания
Жанр: триллер, драма, криминал, биография
Продолжительность: 02:07:00
Перевод: Дубляж Звук с TS
Субтитры: отсутствуют

Режиссер: Брэд Фурман

Бюджет: $28 000 000
Премьера в мире: 6 июля 2016

rating

В ролях: Брайан Крэнстон, Лиэнн Бест, Дэниэл Мейс, Том Вон-Лолор, Ниал Хэйес, Лара Дэкаро, Джульетт Обри, Олимпия Дукакис, Эми Райан, Джон Легуизамо

Доп. информация: лицам до 17 лет обязательно присутствие взрослого

Качество: HDRip
Формат: AVI
Видео кодек: XviD
Аудио кодек: AC3
Видео: 720x304 (2.37:1), 23.976 fps, XviD build 50 ~1923 kbps avg, 0.37 bit/pixel
Аудио#1: 48 kHz, AC3 Dolby Digital, 2/0 (L,R) ch, ~384 kbps
Присутствует Реклама!!!
скриншот  скриншот  скриншот  скриншот  скриншот  скриншот  

Код:

General
Complete name               : E:\The.Infiltrator.2016.HDRip.avi
Format                      : AVI
Format/Info                 : Audio Video Interleave
Format profile              : OpenDML
File size                   : 2.05 GiB
Duration                    : 2h 7mn
Overall bit rate            : 2 314 Kbps
Writing application         : VirtualDubMod 1.5.10.2 (build 2540/release)
Writing library             : VirtualDubMod build 2540/release

Video
ID                          : 0
Format                      : MPEG-4 Visual
Format profile              : Advanced Simple@L5
Format settings, BVOP       : 2
Format settings, QPel       : No
Format settings, GMC        : No warppoints
Format settings, Matrix     : Default (MPEG)
Codec ID                    : XVID
Codec ID/Hint               : XviD
Duration                    : 2h 7mn
Bit rate                    : 1 918 Kbps
Width                       : 720 pixels
Height                      : 304 pixels
Display aspect ratio        : 2.35:1
Frame rate                  : 23.976 (24000/1001) fps
Color space                 : YUV
Chroma subsampling          : 4:2:0
Bit depth                   : 8 bits
Scan type                   : Progressive
Compression mode            : Lossy
Bits/(Pixel*Frame)          : 0.365
Stream size                 : 1.70 GiB (83%)
Writing library             : XviD 1.2.1 (UTC 2008-12-04)

Audio
ID                          : 1
Format                      : AC-3
Format/Info                 : Audio Coding 3
Mode extension              : CM (complete main)
Format settings, Endianness : Big
Codec ID                    : 2000
Duration                    : 2h 7mn
Bit rate mode               : Constant
Bit rate                    : 384 Kbps
Channel(s)                  : 2 channels
Channel positions           : Front: L R
Sampling rate               : 48.0 KHz
Frame rate                  : 31.250 fps (1536 spf)
Compression mode            : Lossy
Stream size                 : 349 MiB (17%)
Alignment                   : Split accross interleaves
Interleave, duration        : 42 ms (1.00 video frame)
Interleave, preload duratio : 500 ms

pb.wtf



Торрент не зареган: Не зарегистрирован ||
Добавлен: 2016-09-30 15:41
Скачано: 0 раз
% Раздел Тема Автор DL S | L
Официальные cаундтреки к зарубежным фильмам [ 232 MB ] Афера под прикрытием / The Infiltrator 2016 / MP3 / 192 - 320 kbps / SoundtrackScore BomjJamesBomj Скачать
1 | 0
Фильмы [HD 720p, 1080p] (Хороший звук DUB, MVO) [ 11.27 GB ] Афера под прикрытием / The Infiltrator [2016 биография BDRip 1080p] DUB [лицензия] bober100 Скачать
1 | 0
Фильмы 2016 [DVDrip, WEB-DLRip, HDrip] (DUB, MVO) [ 2.18 GB ] Афера под прикрытием / The Infiltrator [2016 биография BDRip] - [] Twi7ter Скачать
1 | 0
Фильмы 2016 [DVDrip, WEB-DLRip, HDrip] (DUB, MVO) [ 1.46 GB ] Афера под прикрытием / The Infiltrator [2016 биография BDRip] - [] Twi7ter Скачать
1 | 0
Фильмы 2016 [DVDrip, WEB-DLRip, HDrip] (DUB, MVO) [ 1.37 GB ] Афера под прикрытием / The Infiltrator [2016 HDRip] PsYcho Скачать
1 | 0
R.G. Resident & PiratVoice - Фильмы, Видео [ 2.18 GB ] Афера под прикрытием / The Infiltrator [2016 HDRip-AVC] White Smoke Скачать
2 | 0
Фильмы [HD 720p, 1080p] (Хороший звук DUB, MVO) [ 11.98 GB ] Афера под прикрытием / The Infiltrator [2016 BDRip 1080p] White Smoke Скачать
1 | 0

28-11-2019 20:33  

Отключить всю рекламу на сайте

    Дорогой пользователь! Огромная просьба, поблагодарите релизера, оцените раздачу и оставьте свои комментарий, если Вы скачали Афера под прикрытием через торрент бесплатно! Внесите свою лепту в развитие PiratBit!
    Комментировать посты могут только пользователи прошедшие не сложную регистрацию
    Показать сообщения:    

    Афера под прикрытием через торрент
    Скачать бесплатно Афера под прикрытием
    Афера под прикрытием скачать торрент
    Афера под прикрытием смотреть онлайн
    Cкачать фильм Афера под прикрытием бесплатно
    Афера под прикрытием скачать торрент в хорошем качестве
    Афера под прикрытием смотреть онлайн бесплатно в хорошем качестве


    Вы не можете начинать темы
    Вы не можете отвечать на сообщения
    Вы не можете редактировать свои сообщения
    Вы не можете удалять свои сообщения
    Вы не можете голосовать в опросах
    Вы не можете прикреплять файлы к сообщениям
    Вы можете скачивать файлы