новый адрес пиратбит piratbit
Мега распродажа FORZA HORIZON 4 ULTIMATE+ВСЕ DLC+ОНЛАЙН всего за 499р. 349 руб. (супер цена). Внимание количество ограничено!!!

iTunes

1+1

iTunes

мы

iTunes

1

iTunes

Чернобыль

iTunes

Ральф против интернета

Лицензия

ПШазам

Лицензия

Игра престолов

Лицензия

30
pack

ВАЖНО

!!Акция!!

Alien_RageХит недели

RePack

Resident Evil 21

ИГРА 18+

pack

RePack

Metro:Exodus

!!Акция!!

Alien_Rage

RePack

fifa19

RePack

Assassins Creed: Odyssey

RePack

NEED FOR SPEED™ PAYBACK

3 сезон

9 сезон

Бесстыжие 9 сезон

Все сериалы

все сериалы на PB.wtf

RePack

FAR CRY 5
Ребята, катастрофически не хватает 1900р. для оплаты серверов за Октябрь (всвязи с блокировками трафик упал в 3 раза), 1-2р., выручайте.
  

Дамы приглашают кавалеров (Иван Киасашвили ) [1980, мелодрама, комедия, HDRip-AVC] pb.wtf

Дамы приглашают кавалеров через торрент pb.wtf

Размер: 1.01 GB | Добавлен: 3 года 1 мес. назад | Торрент скачан:9 раз
Скачать  

30-09-2016 16:32 Дамы приглашают кавалеров Скачать торрент  

Дамы приглашают кавалеров

Год выпуска: 1980
Страна: СССР
Жанр: мелодрама, комедия
Продолжительность: 01:11:58
Перевод: Не требуется [Русский]
Режиссер: Иван Киасашвили
В ролях: Марина Неёлова (Аня Позднякова), Леонид Куравлёв (Саня Свинцов), Татьяна Божок (Марина), Николай Караченцов, Мария Виноградова, Николай Скоробогатов, Александр Фатюшин, Гия Перадзе, Наталья Андрейченко (Раиса), Валерий Носик, Александр Соловьев, Петр Олев
Описание:
Любимый муж, дети, тихое семейное счастье - об этом мечтает героиня фильма. Она просто создана для такой жизни - однако ей почему-то не везет. Нет, она не ждет сказочного принца, может многое простить. Только вот без любви и понимания обойтись не в силах...

Качество: HDRip-AVC
Формат: MKV
Видео: AVC, 878x630 (1.394), 1750 kbps, 25 fps, 0,127 bpp
Аудио: русский / AC3 / 2.0 / 48 kHz / 256 kbps /

General
Unique ID Дамы приглашают кавалеров.mkv
Format : Matroska
Format version : Version 4 / Version 2
File size : 1.01 GiB
Duration : 1 h 11 min
Overall bit rate : 2 004 kb/s
Movie name : Дамы приглашают кавалеров (rip by smithland)
Encoded date : UTC 2016-09-28 13:44:15
Writing application : mkvmerge v9.4.2 ('So High') 64bit
Writing library : libebml v1.3.4 + libmatroska v1.4.5
Cover : Yes
Attachments : COVER.jpg

Video
ID : 1
Format : AVC
Format/Info : Advanced Video Codec
Format profile : High@L4
Format settings, CABAC : Yes
Format settings, ReFrames : 10 frames
Codec ID : V_MPEG4/ISO/AVC
Duration : 1 h 11 min
Bit rate : 1 750 kb/s
Width : 878 pixels
Height : 630 pixels
Display aspect ratio : 1.394
Frame rate mode : Constant
Frame rate : 25.000 FPS
Color space : YUV
Chroma subsampling : 4:2:0
Bit depth : 8 bits
Scan type : Progressive
Bits/(Pixel*Frame) : 0.127
Stream size : 899 MiB (87%)
Writing library : x264 core 148 r2705 3f5ed56
Encoding settings : cabac=1 / ref=10 / deblock=1:-2:0 / analyse=0x3:0x133 / me=umh / subme=11 / psy=1 / psy_rd=1.10:0.25 / mixed_ref=1 / me_range=32 / chroma_me=1 / trellis=2 / 8x8dct=1 / cqm=0 / deadzone=21,11 / fast_pskip=1 / chroma_qp_offset=-4 / threads=12 / lookahead_threads=1 / sliced_threads=0 / nr=0 / decimate=0 / interlaced=0 / bluray_compat=0 / constrained_intra=0 / bframes=6 / b_pyramid=2 / b_adapt=1 / b_bias=0 / direct=1 / weightb=1 / open_gop=0 / weightp=2 / keyint=250 / keyint_min=25 / scenecut=40 / intra_refresh=0 / rc_lookahead=40 / rc=abr / mbtree=1 / bitrate=1750 / ratetol=1.0 / qcomp=0.60 / qpmin=0 / qpmax=69 / qpstep=4 / vbv_maxrate=25000 / vbv_bufsize=31250 / nal_hrd=none / filler=0 / ip_ratio=1.40 / aq=1:1.00
Language : Russian
Default : Yes
Forced : Yes
Color range : Limited
Color primaries : BT.709
Transfer characteristics : BT.709
Matrix coefficients : BT.709

Audio
ID : 2
Format : AC-3
Format/Info : Audio Coding 3
Mode extension : CM (complete main)
Format settings, Endianness : Big
Codec ID : A_AC3
Duration : 1 h 11 min
Bit rate mode : Constant
Bit rate : 256 kb/s
Channel(s) : 2 channels
Channel positions : Front: L R
Sampling rate : 48.0 kHz
Frame rate : 31.250 FPS (1536 spf)
Compression mode : Lossy
Delay relative to video : -5 ms
Stream size : 132 MiB (13%)
Title : Stereo
Language : Russian
Default : Yes
Forced : Yes
Скриншоты:
pb.wtf



Скачать Дамы приглашают кавалеров через торрент http://i1.imageban.ru/out/2016/09/30/9cb72bf3eba4f81825b51eedcdfdd4f3.jpg Скачать фильм Дамы приглашают кавалеров через торрент бесплантно в хорошем качестве Описание: Любимый муж, дети, тихое семейное счастье - об этом мечтает героиня фильма. Она просто создана для такой жизни - однако ей ... 10 10 2
Торрент: Зарегистрирован [2016-09-30 16:32] · скачан: 9 раз
Статус: √ проверено
Размер: 1.01 GB
Как cкачать? Как скачать Дамы приглашают кавалеров через торрент | qTorrent


>> Регистрируемся здесь <<






Отзывы и комментарии о схеме читаем и пишем здесь: ---> Отзывы и комментарии о схеме

Новые благодарочки в телеграм довольных пользователей:
скриншот   скриншот   скриншот   скриншот   скриншот
    Дорогой пользователь! Огромная просьба, поблагодарите релизера, оцените раздачу и оставьте свои комментарий, если Вы скачали Дамы приглашают кавалеров через торрент бесплатно! Внесите свою лепту в развитие PiratBit!
    Комментировать посты могут только пользователи прошедшие не сложную регистрацию
    Показать сообщения:    

    Дамы приглашают кавалеров через торрент
    Скачать бесплатно Дамы приглашают кавалеров
    Дамы приглашают кавалеров скачать торрент
    Дамы приглашают кавалеров смотреть онлайн
    Cкачать фильм Дамы приглашают кавалеров бесплатно
    Дамы приглашают кавалеров скачать торрент в хорошем качестве
    Дамы приглашают кавалеров смотреть онлайн бесплатно в хорошем качестве


    Вы не можете начинать темы
    Вы не можете отвечать на сообщения
    Вы не можете редактировать свои сообщения
    Вы не можете удалять свои сообщения
    Вы не можете голосовать в опросах
    Вы не можете прикреплять файлы к сообщениям
    Вы можете скачивать файлы